<?xml version="1.0" standalone="no"?>
<!DOCTYPE svg PUBLIC "-//W3C//DTD SVG 1.1//EN" "http://www.w3.org/Graphics/SVG/1.1/DTD/svg11.dtd" >
<svg xmlns="http://www.w3.org/2000/svg" xmlns:xlink="http://www.w3.org/1999/xlink" version="1.1">
<metadata>
Created by FontForge 20170731 at Sun Oct 29 13:05:36 2017
 By Aleksey,,,
Copyright 2017 The EB Garamond Project Authors (https://github.com/octaviopardo/EBGaramond12)
</metadata>
<defs>
<font id="EBGaramond-Medium" horiz-adv-x="0" >
  <font-face 
    font-family="EB Garamond Medium"
    font-weight="500"
    font-stretch="normal"
    units-per-em="1000"
    panose-1="0 0 6 0 0 0 0 0 0 0"
    ascent="800"
    descent="-200"
    x-height="411"
    cap-height="654"
    bbox="-298 -324 2567 1003"
    underline-thickness="50"
    underline-position="-150"
    unicode-range="U+000D-1F44D"
  />
<missing-glyph horiz-adv-x="505" 
d="M43 496h419v-496h-419v496zM396 69v358h-288v-358h288z" />
    <glyph glyph-name="f_f" unicode="ff" horiz-adv-x="606" 
d="M682 689q29 -17 29 -49q0 -21 -10 -32.5t-26 -11.5q-8 0 -15.5 6t-19.5 19q-18 19 -38 30.5t-50 11.5q-46 0 -72.5 -40t-26.5 -119v-86q0 -11 13 -11h120q7 0 10.5 -3.5t3.5 -9.5q0 -19 -6 -31q-5 -8 -9 -8h-107q-15 0 -20 -4t-5 -13v-263q0 -23 13 -33t53 -15
q11 -2 16 -6t5 -11q0 -6 -5 -9.5t-13 -3.5q-31 0 -60 3q-36 2 -53 2t-43 -2q-21 -3 -49 -3q-20 0 -20 12q0 7 5 11t16 6q25 7 34 15.5t9 27.5v283q-24 0 -39 1h-103q-24 0 -32 -5t-8 -14v-264q0 -33 46 -43q22 -5 22 -18q0 -12 -19 -12q-27 0 -50 3q-26 2 -43 2t-43 -2
q-21 -3 -49 -3q-20 0 -20 12q0 7 5.5 10.5t17.5 7.5q19 6 30 15t11 27v283q-31 0 -52 2q-4 1 -9 8.5t-5 13.5q0 4 8 7q21 6 36.5 14t21.5 11q2 87 39 145.5t90 86t104 27.5q38 0 68 -10t46 -25q34 38 76.5 56t83.5 18q59 0 88 -17zM353 407l8 4q1 88 30 153q-3 2 -20 19
q-35 39 -87 39q-49 0 -77 -44.5t-28 -135.5v-13q0 -22 25 -22h149z" />
    <glyph glyph-name="f_f_i" unicode="ffi" horiz-adv-x="818" 
d="M795.5 18.5q5.5 -3.5 5.5 -10.5q0 -11 -18 -11q-29 0 -50 3q-28 2 -44 2q-17 0 -43 -2q-21 -3 -49 -3q-7 0 -13 2.5t-6 7.5q0 11 21 19q23 6 34 15t11 27v216q0 64 -47 71l-49 1l-55 -1q-26 -1 -33 -6t-7 -16v-263q0 -19 12.5 -28t33.5 -15q22 -8 22 -19q0 -5 -6 -8
t-13 -3q-29 0 -50 3q-28 2 -44 2t-42 -2q-21 -3 -49 -3q-7 0 -13.5 2.5t-6.5 8.5q0 7 6 11t17 8q20 6 30.5 14.5t10.5 27.5v283h-20q-15 0 -24 1h-98q-24 0 -32 -5t-8 -14v-264q0 -33 46 -43q22 -5 22 -18q0 -12 -19 -12q-27 0 -50 3q-26 2 -43 2t-43 -2q-21 -3 -49 -3
q-20 0 -20 12q0 7 5.5 10.5t17.5 7.5q19 6 30 15t11 27v283q-31 0 -52 2q-4 1 -9 8.5t-5 13.5q0 4 8 7q21 6 36.5 14t21.5 11q2 87 39 145.5t90 86t104 27.5q41 0 72 -11t45 -28q38 40 85.5 59t92.5 19q58 0 95.5 -17t37.5 -53q0 -28 -15 -43.5t-37 -15.5q-12 0 -21 8.5
t-22 25.5q-31 49 -85 49q-49 0 -82 -45t-33 -134v-54q0 -11 6.5 -15t18.5 -5q67 -7 114 -7l30 1q51 5 66 11l44 26l4 1q9 0 9 -8q0 -6 -2 -24q-8 -77 -8 -128v-211q0 -17 11.5 -26t33.5 -16q10 -4 15.5 -7.5zM359 407l2 1q1 88 32 154q-5 3 -12 10t-10 11q-35 39 -87 39
q-49 0 -77 -44.5t-28 -135.5v-13q0 -22 25 -22h155z" />
    <glyph glyph-name="f_f_l" unicode="ffl" horiz-adv-x="812" 
d="M794 8q0 -10 -20 -10q-21 0 -49 2q-26 2 -42 2q-17 0 -41 -2q-21 -3 -48 -3q-20 0 -20 11q0 7 5.5 10.5t17.5 8.5q20 6 31 14.5t11 27.5v271q0 15 -17 15h-129q-26 0 -33 -5.5t-7 -16.5v-263q0 -19 12.5 -28t33.5 -15q22 -8 22 -19q0 -5 -6 -8t-13 -3q-29 0 -50 3
q-28 2 -44 2t-42 -2q-21 -3 -49 -3q-7 0 -13.5 2.5t-6.5 8.5q0 7 6 11t17 8q20 6 30.5 14.5t10.5 27.5v283q-27 0 -44 1h-98q-24 0 -32 -5t-8 -14v-264q0 -33 46 -43q22 -5 22 -18q0 -12 -19 -12q-27 0 -50 3q-26 2 -43 2t-43 -2q-21 -3 -49 -3q-20 0 -20 12q0 7 5.5 10.5
t17.5 7.5q19 6 30 15t11 27v283q-31 0 -52 2q-4 1 -9 8.5t-5 13.5q0 4 8 7q21 6 36.5 14t21.5 11q2 87 39 145.5t90 86t104 27.5q41 0 71.5 -11t45.5 -28q36 40 82 59t89 19q39 0 66 -12q6 -3 12 -3q4 0 10 2q7 3 13 5.5t12 4.5q3 1 8 1q7 0 7 -8q0 -7 -2.5 -35.5
t-3.5 -76.5l1 -515q0 -19 10 -27.5t30 -14.5q23 -8 23 -19zM639 565q0 41 -12 68.5t-51 27.5q-52 0 -87.5 -46.5t-35.5 -137.5v-50q0 -20 25 -20h147q14 0 14 13v145zM359 407l2 1q3 87 32 154q-5 3 -12 10t-10 11q-35 39 -87 39q-49 0 -77 -44.5t-28 -135.5v-13
q0 -22 25 -22h155z" />
    <glyph glyph-name="f_i" unicode="fi" horiz-adv-x="544" 
d="M29.5 -0.5q-6.5 2.5 -6.5 8.5q0 7 6 11t17 8q20 6 30.5 14.5t10.5 27.5v283h-19.5t-32.5 2q-4 1 -8 8t-4 14t11 10q25 8 53 22q2 108 43 174.5t98.5 95t112.5 28.5q58 0 95.5 -17t37.5 -53q0 -28 -15 -43.5t-37 -15.5q-12 0 -21 8.5t-22 25.5q-31 49 -85 49
q-49 0 -82 -45t-33 -134v-54q0 -11 6.5 -15t18.5 -5q66 -7 114 -7l30 1q51 5 66 11l44 26l4 1q9 0 9 -8q0 -6 -2 -24q-8 -77 -8 -128v-211q0 -17 11.5 -26t33.5 -16q10 -4 15.5 -7.5t5.5 -10.5q0 -11 -18 -11q-29 0 -50 3q-28 2 -44 2q-17 0 -43 -2q-21 -3 -49 -3
q-7 0 -13 2.5t-6 7.5q0 11 21 19q23 6 34 15t11 27v216q0 64 -47 71l-49 1l-55 -1q-26 -1 -33 -6t-7 -16v-263q0 -19 12.5 -28t33.5 -15q22 -8 22 -19q0 -5 -6 -8t-13 -3q-29 0 -50 3q-28 2 -44 2t-42 -2q-21 -3 -49 -3q-7 0 -13.5 2.5z" />
    <glyph glyph-name="f_l" unicode="fl" horiz-adv-x="540" 
d="M31.5 -0.5q-6.5 2.5 -6.5 8.5q0 7 6 11t17 8q20 6 30.5 14.5t10.5 27.5v283q-36 0 -57 2q-4 1 -7.5 8.5t-3.5 14.5q0 4 5 6q24 6 63 25q3 108 43 174.5t95.5 95t108.5 28.5q39 0 66 -12q6 -3 12 -3q4 0 10 2q7 3 13 5.5t12 4.5q3 1 8 1q7 0 7 -8q0 -7 -2.5 -35.5
t-3.5 -76.5l1 -515q0 -19 10 -27.5t30 -14.5q23 -8 23 -19q0 -10 -20 -10q-21 0 -49 2q-26 2 -42 2q-17 0 -41 -2q-21 -3 -48 -3q-20 0 -20 11q0 7 5.5 10.5t17.5 8.5q20 6 31 14.5t11 27.5v271q0 15 -17 15h-129q-26 0 -33 -5.5t-7 -16.5v-263q0 -19 12.5 -28t33.5 -15
q22 -8 22 -19q0 -5 -6 -8t-13 -3q-29 0 -50 3q-28 2 -44 2t-42 -2q-21 -3 -49 -3q-7 0 -13.5 2.5zM353 407q14 0 14 13v145q0 41 -12 68.5t-51 27.5q-52 0 -87.5 -46.5t-35.5 -137.5v-50q0 -20 25 -20h147z" />
    <glyph glyph-name=".notdef" horiz-adv-x="505" 
d="M43 496h419v-496h-419v496zM396 69v358h-288v-358h288z" />
    <glyph glyph-name=".null" 
 />
    <glyph glyph-name="nonmarkingreturn" unicode="&#xd;" horiz-adv-x="213" 
 />
    <glyph glyph-name="NULL" 
 />
    <glyph glyph-name="space" unicode=" " horiz-adv-x="213" 
 />
    <glyph glyph-name="exclam" unicode="!" horiz-adv-x="264" 
d="M115.5 205q-5.5 10 -7.5 33q-13 103 -22 200.5t-9 146.5q0 25 16.5 44.5t40.5 19.5q23 0 38.5 -19.5t15.5 -46.5q0 -75 -33 -320l-3 -25q-5 -43 -22 -43q-9 0 -14.5 10zM85 5q-19 19 -19 45q0 27 19 46t46 19q26 0 45 -19t19 -46q0 -26 -19 -45t-45 -19q-27 0 -46 19z
" />
    <glyph glyph-name="quotedbl" unicode="&#x22;" horiz-adv-x="354" 
d="M68 439q-2 8 -2 17q1 21 0.5 36t-0.5 24q0 13 -3 79q-1 11 -1 24q0 11 6.5 21t15.5 16q16 13 26 18t23 5q9 0 13.5 -10t4.5 -24q0 -37 -17.5 -91.5t-36.5 -95.5q-4 -10 -11 -18.5t-11 -8.5q-5 0 -7 8zM209 439q-2 8 -2 17q1 21 0.5 36t-0.5 24q0 13 -3 79q-1 11 -1 24
q0 11 6.5 21t15.5 16q16 13 26 18t23 5q9 0 13.5 -10t4.5 -24q0 -37 -17.5 -91.5t-36.5 -95.5q-4 -10 -11 -18.5t-11 -8.5q-5 0 -7 8z" />
    <glyph glyph-name="numbersign" unicode="#" horiz-adv-x="474" 
d="M55 -80q-3 4 -3 10v4l42 171l-61 -3q-7 0 -12 4.5t-5 10.5q0 20 7.5 37t21.5 18l66 3l32 129l-65 -3h-2q-6 0 -10.5 4.5t-4.5 9.5q0 21 7 38t21 18l71 3l40 162q4 20 35 20q4 0 7 -4t3 -10l-1 -6l-39 -160l113 5l41 166q4 20 35 20q4 0 7 -4t3 -10q0 -1 -1 -2.5t-1 -3.5
l-40 -163l59 3q8 0 12.5 -4t4.5 -11q0 -16 -9.5 -35t-24.5 -20l-59 -3l-32 -129l64 3q8 0 12.5 -4t4.5 -11q0 -16 -10 -35t-24 -20l-64 -3l-41 -169q-3 -10 -11 -13.5t-21 -3.5q-6 0 -9 4t-3 10v3l41 167l-114 -6l-42 -173q-3 -11 -11 -14.5t-22 -3.5q-5 0 -8 4zM269 182
l31 129l-113 -5l-32 -129z" />
    <glyph glyph-name="dollar" unicode="$" horiz-adv-x="448" 
d="M160 -76q-5 6 -4 16l8 68v2q0 7 -7 7q-52 9 -97 41q-11 9 -14 20q-7 18 -9 43.5t-3 64.5q0 6 5 9t13 3q14 0 17 -11q28 -96 92 -123q3 -2 6 -1t3 5l24 209v3q0 8 -11 14q-62 36 -97 74t-35 95q0 69 47.5 116t130.5 53q10 2 10 7l7 55q1 9 10 13.5t21 4.5q6 0 10 -5.5
t4 -13.5l-3 -27l-4 -28q0 -6 7 -7q31 -5 69 -22q16 -4 21 -24q8 -31 12.5 -52t4.5 -43q0 -10 -15 -10q-9 0 -17 3.5t-10 8.5q-29 75 -75 93q-5 0 -5 -5l-22 -183v-4q0 -4 4 -8t13 -10q67 -39 101.5 -79t34.5 -101q0 -80 -51.5 -128t-139.5 -53q-7 0 -8 -6l-9 -76
q-1 -7 -8.5 -10.5t-17.5 -3.5q-8 0 -13 6zM212 419l19 163q0 8 -7 8q-79 -9 -79 -90q0 -23 15 -42.5t44 -39.5q8 -5 8 1zM287.5 85.5q23.5 25.5 23.5 66.5q0 38 -16 61t-51 46q-3 2 -5 0.5t-2 -5.5l-23 -188q0 -6 2 -8t7 -2q41 4 64.5 29.5z" />
    <glyph glyph-name="percent" unicode="%" horiz-adv-x="668" 
d="M81 287q-30 24 -46 64t-16 86q0 48 18 89t51.5 65t77.5 24q39 0 68.5 -23.5t45 -61.5t15.5 -82q0 -50 -17.5 -92.5t-50.5 -67.5t-76 -25q-40 0 -70 24zM209.5 329.5q12.5 41.5 12.5 106.5q0 151 -67 151q-35 0 -48.5 -40t-13.5 -99q0 -160 68 -160q36 0 48.5 41.5z
M529.5 661q10.5 4 25.5 4q6 0 11 -5t5 -10q0 -3 -1 -4l-428 -678q-6 -10 -15.5 -13t-24.5 -3q-7 0 -13 4t-6 9q0 2 1 3l428 678q7 11 17.5 15zM434 7q-30 24 -46 64t-16 86q0 48 18 89t51.5 65t77.5 24q39 0 68.5 -23.5t45 -61.5t15.5 -82q0 -50 -17.5 -92.5t-50.5 -67.5
t-76 -25q-40 0 -70 24zM562.5 49.5q12.5 41.5 12.5 106.5q0 151 -67 151q-35 0 -48.5 -40t-13.5 -99q0 -160 68 -160q36 0 48.5 41.5z" />
    <glyph glyph-name="ampersand" unicode="&#x26;" horiz-adv-x="771" 
d="M123 3q-40 18 -63.5 50.5t-23.5 74.5q0 70 43.5 123.5t119.5 88.5l20 9l-12 14q-5 5 -23 23.5t-30.5 43t-12.5 51.5q0 51 45.5 84.5t108.5 33.5q42 0 73 -17t47.5 -44.5t16.5 -55.5q1 -39 -26 -66.5t-79 -46.5l-17 -6l15 -17l35 -35q24 -24 47.5 -49.5t41.5 -50.5l14 -18
l17 17q33 35 63 78.5t30 56.5q0 9 -8 18t-20 12q-5 2 -10 6t-5 7q0 13 25 13l30 -2q34 -4 49 -4t60 9q36 8 48 8q4 0 9 -3.5t5 -6.5q0 -7 -9 -13.5t-19 -8.5q-44 -5 -80 -39q-11 -10 -89 -90q-67 -69 -80 -80l17 -24q36 -48 65.5 -72.5t62.5 -24.5q45 0 78 16q12 6 19 6
q8 0 11 -3t3 -10q0 -11 -22 -29t-54.5 -31.5t-64.5 -13.5q-37 0 -63 11t-47 33t-50 63l-14 21l-6 -6q-57 -62 -100.5 -92t-102.5 -30q-48 0 -88 18zM307 389q21 11 33 38t12 57q0 35 -16 60.5t-46 25.5q-27 0 -46.5 -17.5t-19.5 -42.5q0 -33 11 -55.5t42 -54.5l17 -18z
M327.5 76q33.5 16 66.5 50l8 8l-13 19q-34 48 -109 128l-31 33l-12 14l-20 -9q-50 -21 -67.5 -57.5t-17.5 -85.5q0 -51 33.5 -83.5t87.5 -32.5q41 0 74.5 16z" />
    <glyph glyph-name="quotesingle" unicode="'" horiz-adv-x="213" 
d="M68 439q-2 8 -2 17q1 21 0.5 36t-0.5 24q0 13 -3 79q-1 11 -1 24q0 11 6.5 21t15.5 16q16 13 26 18t23 5q9 0 13.5 -10t4.5 -24q0 -37 -17.5 -91.5t-36.5 -95.5q-4 -10 -11 -18.5t-11 -8.5q-5 0 -7 8z" />
    <glyph glyph-name="parenleft" unicode="(" horiz-adv-x="311" 
d="M217 -206q-36 36 -78.5 118.5t-71 179t-28.5 176.5t27.5 164t67.5 153t78 107q5 5 15 9t19 4q7 0 17 -6t10 -13q0 -2 -6.5 -11t-9.5 -13q-49 -59 -86 -162.5t-37 -221.5q0 -79 17.5 -168.5t45 -164t55.5 -108.5q2 -3 10.5 -12.5t8.5 -11.5q0 -12 -10 -19.5t-23 -7.5
t-21 8z" />
    <glyph glyph-name="parenright" unicode=")" horiz-adv-x="311" 
d="M50 -206.5q-10 7.5 -10 19.5q0 2 8.5 11.5t10.5 12.5q28 34 55.5 108.5t45 164t17.5 168.5q0 118 -37 221.5t-86 162.5q-3 4 -9.5 13t-6.5 11q0 7 10 13t17 6q9 0 19 -4t15 -9q38 -38 78 -107t67.5 -153t27.5 -164t-28.5 -176.5t-71 -179t-78.5 -118.5q-8 -8 -21 -8
t-23 7.5z" />
    <glyph glyph-name="asterisk" unicode="*" horiz-adv-x="346" 
d="M174 371.5q-6 6.5 -8 16.5l-13 85q-33 -23 -74 -46q-5 -5 -15 -5q-8 0 -14.5 5t-6.5 13q0 13 11 22l67 53q-57 28 -76 39q-15 8 -15 23q0 9 6 14t15 5q5 0 11 -2l51 -20l30 -12q-5 45 -5 86q0 11 5 19t16 9q9 -1 15 -7.5t7 -15.5l12 -85l19 12q31 22 54 34q6 6 15 6
q8 0 15 -5.5t7 -13.5q0 -10 -11 -21l-67 -54q57 -27 76 -38q7 -4 11.5 -10t4.5 -13q0 -9 -6.5 -14t-16.5 -5q-6 0 -9 1l-51 20l-30 12q5 -59 6 -87q0 -12 -5.5 -19.5t-16.5 -7.5q-8 0 -14 6.5z" />
    <glyph glyph-name="plus" unicode="+" horiz-adv-x="594" 
d="M274 -4.5q-4 4.5 -4 10.5v208q0 7 -6 7h-205q-6 0 -10.5 3.5t-4.5 8.5q0 12 7 27t19 15h191q6 0 7.5 2t1.5 8v174q0 14 18 23t29 9q5 0 9.5 -5t4.5 -11v-192q0 -8 5 -8h205q7 0 11.5 -3.5t4.5 -8.5q0 -14 -9.5 -28t-22.5 -14h-187q-7 0 -7 -6v-199q0 -14 -17 -19.5
t-31 -5.5q-5 0 -9 4.5z" />
    <glyph glyph-name="comma" unicode="," horiz-adv-x="236" 
d="M21 -140q0 10 16 13q40 9 66.5 34.5t26.5 67.5q0 14 -12 27.5t-28 16.5q-20 3 -32.5 15.5t-12.5 31.5q0 22 18 37t42 15q39 0 64 -28t25 -71q0 -49 -24.5 -88.5t-60.5 -61.5t-68 -22q-20 0 -20 13z" />
    <glyph glyph-name="hyphen" unicode="-" horiz-adv-x="289" 
d="M28 175q0 23 4.5 39.5t13.5 17.5q128 19 204 26h2q9 0 9 -9q0 -51 -21 -54q-134 -21 -205 -27q-7 0 -7 7z" />
    <glyph glyph-name="period" unicode="." horiz-adv-x="236" 
d="M73 -1q-19 19 -19 45q0 27 19 46t45 19t45 -19t19 -46q0 -26 -19 -45t-45 -19t-45 19z" />
    <glyph glyph-name="slash" unicode="/" horiz-adv-x="401" 
d="M21 -57q-5 5 -2 11l301 693q6 11 16 15t26 4q10 0 14 -6t1 -13l-301 -693q-5 -10 -14.5 -13t-25.5 -3q-10 0 -15 5z" />
    <glyph glyph-name="zero" unicode="0" horiz-adv-x="497" 
d="M134 32.5q-48 46.5 -72 119t-24 150.5q0 81 24 156t74.5 123.5t124.5 48.5q68 0 116 -46.5t72 -118.5t24 -149q0 -81 -24 -156.5t-74.5 -124.5t-124.5 -49q-68 0 -116 46.5zM344.5 98q25.5 79 25.5 200q0 76 -15 144.5t-43.5 111t-68.5 42.5q-53 0 -77 -77.5t-24 -198.5
q0 -77 14 -146t42.5 -112t68.5 -43q52 0 77.5 79z" />
    <glyph glyph-name="one" unicode="1" horiz-adv-x="497" 
d="M99 1q-4 4 -4 9t4.5 9t11.5 6q42 11 61.5 18.5t30.5 22t11 40.5v375q0 28 -22 38.5t-63 14.5q-10 1 -18 6t-8 13q0 9 7.5 14t19.5 7q57 7 95 19.5t73 41.5q2 2 7 2q6 0 10.5 -3t4.5 -7q-5 -32 -5 -71v-459q0 -23 10 -35t29.5 -19t63.5 -18q17 -6 17 -16q0 -5 -4 -8.5
t-10 -3.5q-40 0 -81 3q-50 2 -74 2t-76 -2q-40 -3 -80 -3q-7 0 -11 4z" />
    <glyph glyph-name="two" unicode="2" horiz-adv-x="497" 
d="M388 -2q-68 4 -118 4q-8 0 -155 -3l-53 -1q-4 0 -12 6t-8 11q0 6 4.5 10.5l5.5 5.5l162 172q112 119 112 246q0 48 -28 78t-70 30q-38 0 -71.5 -20.5t-55.5 -54.5q-12 -16 -23 -16q-6 0 -10 8t-4 20q0 19 28 52.5t74 58.5t99 25q74 0 117 -46.5t43 -119.5q0 -40 -22 -89
t-54 -87q-26 -30 -132 -136q-66 -66 -66 -68q0 -4 14 -6q31 -4 89 -4q61 0 105 4q40 2 58 12t35 40q14 22 26 22q6 0 8 -4.5t1 -10.5l-10 -32q-19 -56 -25 -85q-2 -13 -9 -18t-13 -5z" />
    <glyph glyph-name="three" unicode="3" horiz-adv-x="497" 
d="M94 -23q-36 15 -36 30q0 14 14.5 32.5t26.5 18.5q9 0 16.5 -4.5t18.5 -13.5q17 -17 34.5 -27.5t40.5 -10.5q35 0 66 18.5t50 52t19 74.5q0 63 -29 107.5t-80 44.5q-34 0 -65 -18q-2 -1 -5 -1q-6 0 -11 4t-4 8q7 26 34 41q48 23 86 57.5t38 80.5q0 39 -25.5 67t-63.5 28
q-44 0 -69.5 -20t-44.5 -50q-2 -3 -7 -9.5t-8 -6.5q-6 0 -12 6.5t-6 14.5q0 19 22 50t66 55t108 24q35 0 66.5 -15t50.5 -41.5t19 -60.5q0 -40 -28.5 -81t-87.5 -67q-3 -2 -3 -4t4 -2q45 0 82 -20.5t58 -56t21 -79.5q0 -72 -40.5 -126.5t-106.5 -84.5t-138 -30q-35 0 -71 15
z" />
    <glyph glyph-name="four" unicode="4" horiz-adv-x="497" 
d="M198.5 1q-6.5 4 -6.5 10q0 12 20 14q43 7 58.5 20t15.5 40v80q0 4 -6 6.5t-10 2.5q-37 0 -65.5 -1t-48.5 -2q-76 -4 -125 -4q-4 0 -8 3t-4 7q0 2 3 5l36 45l257 384q22 31 36 31h16q4 0 4 -6q0 -8 -2 -10l-258 -383q-5 -11 3 -11h161q4 0 7.5 2.5t3.5 5.5v142
q0 14 2 18.5t9 8.5q17 9 38 12.5t34 3.5t16 -14.5t3 -54.5v-120q0 -2 1.5 -4.5t3.5 -2.5q16 -1 39 -1q14 0 58 2q5 0 8 -2t3 -5q0 -11 -8.5 -29t-12.5 -18l-49 1q-13 0 -29 -2q-4 -1 -8 -3t-5 -3v-81q0 -28 12.5 -40t53.5 -23q8 -2 14 -6t6 -10q0 -5 -5 -8.5t-12 -3.5
q-37 0 -66 3q-36 2 -57 2q-23 0 -59 -2q-28 -3 -65 -3q-6 0 -12.5 4z" />
    <glyph glyph-name="five" unicode="5" horiz-adv-x="497" 
d="M76 -25q0 8 12.5 13.5t25.5 6.5q69 2 119.5 28.5t77 66.5t26.5 82q0 57 -51 95.5t-172 71.5q-19 11 -26.5 21.5t-7.5 26.5q0 18 8.5 47t26.5 85q4 11 6.5 19t4.5 14q11 33 44 41q44 11 106 21t107 14h1q8 0 11.5 -6t0.5 -13l-11 -25l-9 -19q-14 -34 -46 -37l-72 -6
q-82 -6 -97 -9q-10 -1 -23 -26.5t-14 -37.5v-3q0 -11 12 -14q105 -27 180 -64q59 -30 87 -72t28 -100q0 -55 -33 -104t-90 -82q-38 -21 -88.5 -34.5t-102.5 -13.5q-41 0 -41 13z" />
    <glyph glyph-name="six" unicode="6" horiz-adv-x="497" 
d="M155 9.5q-47 24.5 -74.5 71.5t-27.5 112q0 158 119 283q43 47 112 92.5t150 69.5q5 2 13 2q7 0 11 -2t3 -5q-3 -8 -9.5 -13t-19.5 -11q-63 -28 -107 -63.5t-80 -88.5q-33 -49 -60.5 -119.5t-27.5 -141.5q1 -53 20 -92t48 -59t60 -20q38 0 64 31t26 89q0 46 -24.5 80.5
t-59.5 34.5q-23 0 -37.5 -2.5t-28.5 -9.5q-6 -3 -9 -3q-7 0 -7 7q0 6 6 12q11 13 26 22q15 12 44.5 24.5t54.5 12.5q35 0 66.5 -17t50 -47t18.5 -66q0 -57 -30 -105t-79 -75.5t-105 -27.5q-59 0 -106 24.5z" />
    <glyph glyph-name="seven" unicode="7" horiz-adv-x="497" 
d="M124 -23.5q-6 7.5 -6 20.5q0 5 10 21.5t13 22.5l268 480l2 5q0 5 -12 6h-245q-26 0 -42.5 -9t-32.5 -34q-1 -1 -10.5 -17.5t-21.5 -16.5q-5 0 -8 4.5t-3 10.5q0 10 7 31q17 82 19 112q0 7 4.5 10.5t9.5 2.5q5 0 31.5 -4.5t56.5 -4.5q74 -2 124 -2q167 0 205 5q3 0 5 -5.5
t2 -10.5q0 -7 -7.5 -20.5t-15.5 -26.5l-14 -22l-301 -537q-14 -29 -20 -29q-12 0 -18 7.5z" />
    <glyph glyph-name="eight" unicode="8" horiz-adv-x="497" 
d="M157 6q-43 20 -68.5 55.5t-25.5 80.5q0 39 21 67.5t45.5 45.5t69.5 42q6 3 6 5t-9 9q-42 35 -63.5 56t-37 51t-15.5 68q0 40 28 73t72.5 52t92.5 19q42 0 81 -17t62.5 -48.5t23.5 -71.5q0 -57 -55 -97l-50 -36q-14 -8 -14 -13q0 -4 9 -9q67 -46 98 -82t31 -89
q0 -52 -29.5 -93.5t-77.5 -64.5t-102 -23q-50 0 -93 20zM336 420.5q10 32.5 10 78.5q0 43 -21 71.5t-60 28.5q-34 0 -62 -26.5t-28 -63.5q0 -27 9 -46.5t24 -33.5t44 -37q12 -8 31 -24q4 -3 8.5 -4t7.5 2q27 22 37 54.5zM333.5 50q27.5 30 27.5 72q0 70 -113 151
q-13 10 -19 10q-3 0 -12 -7q-30 -25 -42.5 -51.5t-12.5 -69.5q0 -54 28.5 -94.5t74.5 -40.5q41 0 68.5 30z" />
    <glyph glyph-name="nine" unicode="9" horiz-adv-x="497" 
d="M54 -27q0 13 19 15q47 2 108.5 44.5t107.5 101.5q45 58 68.5 120t23.5 135q0 47 -18 93t-48 76t-62 30q-42 0 -66 -33t-24 -79q0 -30 13.5 -58.5t35 -47t44.5 -18.5q19 0 30.5 4t21.5 9t15 8q2 1 5 1q9 0 9 -9q0 -3 -3 -8q-6 -11 -29 -31q-15 -12 -42 -23.5t-51 -11.5
q-36 0 -69.5 17.5t-55 48.5t-21.5 68q0 46 29 93.5t79 79t109 31.5q51 0 97 -32.5t74 -86t28 -110.5q0 -88 -38 -162.5t-107 -146.5q-51 -54 -130 -91.5t-135 -37.5q-18 0 -18 11z" />
    <glyph glyph-name="colon" unicode=":" horiz-adv-x="260" 
d="M83 275q-19 19 -19 45q0 27 19 46t45 19t45 -19t19 -46q0 -26 -19 -45t-45 -19t-45 19zM83 -1q-19 19 -19 45q0 27 19 46t45 19t45 -19t19 -46q0 -26 -19 -45t-45 -19t-45 19z" />
    <glyph glyph-name="semicolon" unicode=";" horiz-adv-x="235" 
d="M63 276q-19 19 -19 45q0 27 19 46t45 19t45 -19t19 -46q0 -26 -19 -45t-45 -19t-45 19zM21 -140q0 10 16 13q40 9 66.5 34.5t26.5 67.5q0 14 -12 27.5t-28 16.5q-20 3 -32.5 15.5t-12.5 31.5q0 22 18 37t42 15q39 0 64 -28t25 -71q0 -49 -24.5 -88.5t-60.5 -61.5t-68 -22
q-20 0 -20 13z" />
    <glyph glyph-name="less" unicode="&#x3c;" horiz-adv-x="553" 
d="M91 193q-43 22 -43 28q0 9 10.5 25t24.5 23l403 198q5 3 8 3q11 0 11 -14q0 -13 -9 -28.5t-24 -22.5l-339 -170q-2 -1 -2 -3t3 -3l344 -169q13 -6 20.5 -21.5t7.5 -27.5q0 -14 -13 -14q-3 0 -9 2z" />
    <glyph glyph-name="equal" unicode="=" horiz-adv-x="588" 
d="M53.5 319q-4.5 4 -4.5 8q0 12 6.5 26t18.5 14h449q6 0 11.5 -4t5.5 -9q0 -11 -10.5 -25t-21.5 -14h-445q-5 0 -9.5 4zM53.5 144q-4.5 4 -4.5 8q0 12 6.5 26t18.5 14h449q6 0 11.5 -3.5t5.5 -8.5q0 -13 -10 -26.5t-22 -13.5h-445q-5 0 -9.5 4z" />
    <glyph glyph-name="greater" unicode="&#x3e;" horiz-adv-x="553" 
d="M462 272q43 -21 43 -28q0 -9 -10.5 -25t-24.5 -23l-403 -198q-4 -3 -8 -3q-11 0 -11 14q0 13 9 28.5t24 22.5l339 170q2 1 2 3t-3 3l-344 169q-13 6 -20.5 21.5t-7.5 27.5q0 14 13 14q3 0 9 -2z" />
    <glyph glyph-name="question" unicode="?" horiz-adv-x="383" 
d="M126 187q-8 9 -12 21q-10 26 -14.5 43t-4.5 44q0 28 25.5 49.5t81.5 48.5q27 13 44.5 32t17.5 41q0 43 -24.5 69.5t-67.5 26.5q-14 0 -32 -5q-3 0 -11 -1.5t-16 -1.5q-18 0 -33.5 22t-15.5 44q0 15 16.5 28t34.5 13q30 0 62 -15t59 -43q39 -40 63 -92.5t24 -94.5
q0 -35 -12.5 -57t-31.5 -31q-39 -21 -87 -51q-20 -12 -26.5 -29t-8.5 -47q-1 -9 -5.5 -16t-12.5 -7q-5 0 -13 9zM103 5q-19 19 -19 45q0 27 19 46t45 19q27 0 46 -19t19 -46q0 -26 -19 -45t-46 -19q-26 0 -45 19z" />
    <glyph glyph-name="at" unicode="@" horiz-adv-x="760" 
d="M217 -98q-79 41 -126 114.5t-47 165.5q0 106 51 181.5t136.5 114.5t186.5 39q78 0 146.5 -37.5t110 -101.5t41.5 -140q0 -58 -29.5 -103.5t-77 -70t-101.5 -24.5q-21 0 -32.5 8t-19 19t-10.5 11t-24 -11.5t-46 -20t-54 -8.5q-54 0 -90 31t-36 85q0 62 30.5 110.5t81 74.5
t109.5 26q15 0 36 -3t31 -6q7 -2 15 -4.5t10 -2.5q5 0 12.5 11t13.5 11q5 0 14.5 -3t8.5 -6q-10 -25 -24 -86l-21 -134q-3 -24 -3 -26q0 -29 18 -29q35 0 65.5 16.5t49 47.5t18.5 71q0 70 -34.5 127t-94.5 89.5t-132 32.5q-81 0 -150 -34.5t-110 -98t-41 -146.5
q0 -78 41 -143.5t110 -103t149 -37.5q48 0 109 21.5t99 52.5q16 12 24 12q18 0 18 -14t-44 -43.5t-105 -52.5t-112 -23q-92 0 -171 41zM389.5 84.5q13.5 5.5 29.5 16.5q10 6 16 17t10 33l20 107q1 3 1 12q0 27 -20.5 43.5t-52.5 16.5q-29 0 -55.5 -18t-43 -53t-16.5 -82
q0 -50 24.5 -74t57.5 -24q16 0 29.5 5.5z" />
    <glyph glyph-name="A" unicode="A" horiz-adv-x="702" 
d="M5 -1.5q-8 3.5 -8 10.5q0 14 30 23q29 8 50.5 25t34.5 48q52 119 92.5 221.5t89.5 238.5q14 36 18 66q29 7 48 17q12 6 19.5 18.5t9.5 15.5q6 4 9 -2q3 -5 5 -12t3 -12q60 -191 157 -478l20 -59q16 -46 38 -64t57 -25q15 -3 22.5 -9t7.5 -14q0 -11 -26 -11l-62 2
q-43 3 -85 3l-68 -1q-20 -1 -53 -1q-12 0 -19.5 3.5t-7.5 9.5q0 7 8.5 12.5t21.5 7.5q35 6 50 18t12 32q-1 18 -10.5 54.5t-18.5 71.5q-2 5 -7 23q-2 7 -7 9.5t-17 2.5h-185q-10 0 -17 -17q-10 -30 -23 -74.5t-15 -58.5q-6 -46 59 -62q30 -7 30 -20q0 -12 -27 -12
q-25 0 -40 1l-57 1q-15 0 -35 -1t-30 -2q-28 -3 -54 -3q-12 0 -20 3.5zM408 284q6 0 10 1t4 4q0 1 -2 11l-74 237q-5 16 -8 16q-2 0 -7 -15l-87 -238l-2 -8q0 -5 5 -6.5t15 -1.5h146z" />
    <glyph glyph-name="B" unicode="B" horiz-adv-x="601" 
d="M25 -2q-7 3 -7 9q0 13 29 19q39 8 56 23.5t17 48.5v452q0 35 -14.5 51t-50.5 20q-15 1 -22 7t-7 13q0 6 7 9.5t19 3.5q31 0 65 -2l50 -1q24 0 48 3q57 3 74 3q121 0 178.5 -34.5t57.5 -114.5q0 -31 -11.5 -57t-28.5 -42q-16 -15 -30.5 -24t-38.5 -17q-4 -2 -4 -5.5
t4 -4.5q42 -12 73 -28t53 -49t22 -87q0 -51 -16 -84t-37.5 -49.5t-50.5 -31.5q-68 -33 -172 -33q-10 0 -42 2q-40 2 -68 2q-24 0 -64 -2q-32 -3 -70 -3q-12 0 -19 3zM377 399q14 9 27 32t13 61q0 130 -131 130q-35 0 -48 -10.5t-13 -33.5v-171q0 -21 13.5 -29t30.5 -8
q63 0 108 29zM370 61.5q34 19.5 54.5 53t20.5 73.5q0 49 -19.5 78.5t-45.5 45.5q-38 24 -102 24q-25 0 -39 -11t-14 -24v-191q0 -37 18 -52.5t54 -15.5q39 0 73 19.5z" />
    <glyph glyph-name="C" unicode="C" horiz-adv-x="710" 
d="M225 27.5q-84 42.5 -134.5 119t-50.5 174.5q0 94 52 172.5t142 124t198 45.5q51 0 89 -7t91 -22q13 -4 19.5 -11.5t7.5 -20.5q6 -58 9 -116q0 -7 -5.5 -11.5t-11.5 -4.5q-15 0 -19 15q-10 38 -22.5 62t-33.5 40q-49 38 -138 38q-73 0 -130.5 -39t-90 -103t-32.5 -137
q0 -85 31.5 -159t90 -118.5t136.5 -44.5q71 0 118 31t80 95q8 14 21 14q6 0 10 -4t4 -12q0 -14 -7.5 -45t-17.5 -58q-6 -13 -11 -18t-19 -10q-37 -15 -88.5 -23.5t-106.5 -8.5q-97 0 -181 42.5z" />
    <glyph glyph-name="D" unicode="D" horiz-adv-x="758" 
d="M297 -4q-86 4 -128 4q-18 0 -52 -2q-38 -2 -66 -2q-26 0 -26 13q0 8 6.5 11.5t22.5 6.5q38 7 52.5 22t14.5 49v452q0 34 -14 48.5t-53 22.5q-16 3 -22.5 7t-6.5 12q0 7 7 10.5t19 3.5q25 0 63 -2l59 -1q23 0 99 4q68 4 84 4q119 0 202.5 -41.5t125.5 -113.5t42 -164
q0 -93 -45.5 -172.5t-126 -127t-179.5 -47.5q-28 0 -78 3zM490.5 70q55.5 36 85.5 100.5t30 148.5q0 91 -35 159.5t-94 105t-128 36.5q-48 0 -71.5 -2.5t-37 -14t-13.5 -36.5v-442q0 -52 36 -71.5t99 -19.5q73 0 128.5 36z" />
    <glyph glyph-name="E" unicode="E" horiz-adv-x="568" 
d="M31 7q0 13 29 19q38 8 54 23.5t16 48.5v452q0 34 -14 48.5t-51 22.5q-29 6 -29 20q0 6 7 9.5t19 3.5q35 0 87 -2q50 -2 80 -2q67 0 165 2q33 0 56.5 1.5t26.5 1.5q7 0 13 -3t7 -9l5 -30q11 -57 11 -82q0 -9 -4.5 -13t-9.5 -4q-9 0 -14 12q-1 4 -6.5 19.5t-10.5 25.5
t-10 16q-27 28 -68 28h-112q-14 0 -28 -10.5t-14 -25.5v-204q0 -10 6 -16t15 -6h94q27 0 38.5 12t19.5 41q7 20 19 20q5 0 9 -5t4 -13q-4 -56 -4 -73q0 -37 3 -79v-4q0 -16 -9 -16q-16 0 -24 29q-7 27 -17.5 39.5t-29.5 12.5h-93q-17 0 -24 -5.5t-7 -20.5v-191
q0 -34 14.5 -48t46.5 -14h79q58 0 85 19q16 11 29 29t28 49q8 13 17 12q11 0 11 -16t-10 -52.5t-21 -67.5q-7 -16 -17 -16q-70 0 -150 3q-27 1 -69.5 2t-98.5 1q-28 0 -57 -3q-57 -3 -66 -3q-26 0 -26 12z" />
    <glyph glyph-name="F" unicode="F" horiz-adv-x="524" 
d="M26 8q0 7 7 11.5t22 7.5q38 7 52 22t14 50v431q0 43 -12.5 63.5t-47.5 27.5q-30 6 -30 20q0 6 7.5 9.5t18.5 3.5q35 0 85 -2t79 -2h144q31 0 71 6q30 4 38 4q7 0 13.5 -3t7.5 -9q2 -28 3.5 -59.5t1.5 -53.5q0 -9 -3 -15t-7 -6q-6 0 -11 4t-6 10q-11 40 -27 59
q-26 26 -69 26h-109q-22 0 -31 -13t-10 -36v-94v-96q0 -22 15 -22l65 1q17 1 44 1q41 0 61 45q2 5 8 11t10 6q5 0 9.5 -5t3.5 -13q-3 -37 -3 -61t3 -68q0 -21 -9 -21t-15 7.5t-9 16.5q-13 43 -48 43l-49 1q-42 0 -63 -1q-10 -1 -16.5 -7t-6.5 -18q0 -126 3 -190
q1 -33 16 -49.5t53 -23.5q15 -3 22 -7.5t7 -11.5q0 -12 -25 -12q-19 0 -39 1.5t-29 1.5q-25 3 -51 3q-32 0 -62 -3q-10 0 -31 -1.5t-40 -1.5q-25 0 -25 12z" />
    <glyph glyph-name="G" unicode="G" horiz-adv-x="726" 
d="M214 28.5q-80 42.5 -127.5 117t-47.5 166.5q0 95 49 175.5t134.5 128t188.5 47.5q37 0 106.5 -11.5t93.5 -22.5q6 -2 8.5 -5.5t4.5 -10.5q10 -84 10 -110q0 -8 -4.5 -14t-10.5 -6q-10 0 -15 6t-10 19q-15 36 -37 61q-17 19 -54 35t-93 16q-73 0 -129.5 -40t-87 -106.5
t-30.5 -143.5q0 -91 32 -159.5t86.5 -105t120.5 -36.5q68 0 103 32q12 11 20 30.5t8 42.5q0 20 1 33l1 34q0 25 -11 32q-12 11 -39.5 18.5t-46.5 8.5q-7 1 -14.5 6.5t-7.5 12.5q0 6 7.5 11t13.5 5q24 0 66 -2q44 -2 70 -2q17 0 49 2t52 2q6 0 12.5 -4t6.5 -12q0 -7 -6.5 -12
t-13.5 -7q-23 -7 -33 -17.5t-13 -31.5q-5 -36 -5 -75v-29q0 -6 3.5 -10.5t4.5 -6.5q2 -3 7 -9t5 -10q0 -17 -16 -19q-9 -2 -28 -12q-48 -23 -98 -38.5t-113 -15.5q-93 0 -173 42.5z" />
    <glyph glyph-name="H" unicode="H" horiz-adv-x="807" 
d="M38 -0.5q-7 3.5 -7 9.5q0 7 6 11t22 7q36 7 48.5 21.5t12.5 49.5v453q0 35 -10 49t-45 21q-15 3 -22 7.5t-7 11.5q0 6 6.5 10t18.5 4q29 0 65 -2q32 -2 50 -2l54 1q38 2 67 2q25 0 25 -13q0 -7 -7 -11.5t-22 -7.5q-38 -8 -52.5 -24t-14.5 -46v-191q0 -11 14 -11h334
q9 0 9 13v189q0 30 -14.5 46t-51.5 24q-15 3 -22 7.5t-7 11.5q0 13 25 13q27 0 69 -2l58 -1q17 0 45 2q34 2 62 2q12 0 19 -4t7 -10q0 -7 -7 -11.5t-22 -7.5q-35 -7 -45 -22t-10 -47v-453q0 -37 10.5 -51t46.5 -21q16 -3 22 -7t6 -11q0 -6 -7.5 -9.5t-18.5 -3.5q-35 0 -64 3
q-32 2 -51 2q-18 0 -54 -2q-30 -3 -67 -3q-11 0 -18 3.5t-7 9.5q0 8 6 11.5t22 6.5q35 8 51.5 24t16.5 46v193q0 15 -8 15h-341q-5 0 -6.5 -2.5t-1.5 -9.5v-189q0 -30 19.5 -49.5t55.5 -27.5q16 -3 22.5 -6.5t6.5 -11.5q0 -6 -7.5 -9.5t-18.5 -3.5q-36 0 -68 3q-40 2 -60 2
q-19 0 -55 -2q-28 -3 -65 -3q-11 0 -18 3.5z" />
    <glyph glyph-name="I" unicode="I" horiz-adv-x="348" 
d="M18 8q0 7 7 11.5t22 7.5q39 7 56.5 22.5t17.5 48.5v452q0 34 -14 48.5t-52 22.5q-29 6 -29 20q0 13 25 13q27 0 69 -2q38 -2 58 -2l56 1q38 2 66 2q26 0 26 -12q0 -14 -29 -20q-40 -8 -55 -23t-15 -48v-452q0 -32 17.5 -47t57.5 -24q15 -3 22 -7.5t7 -11.5q0 -12 -25 -12
q-36 0 -68 3q-40 2 -60 2q-22 0 -64 -2q-33 -3 -70 -3q-26 0 -26 12z" />
    <glyph glyph-name="J" unicode="J" horiz-adv-x="350" 
d="M-44.5 -186.5q-29.5 13.5 -29.5 38.5q0 18 15 34.5t29 16.5q24 0 45 -24q17 -22 26.5 -30t21.5 -8q65 0 65 161v549q0 33 -14.5 47.5t-51.5 22.5q-29 6 -29 20q0 13 26 13q28 0 68 -2q38 -2 58 -2l47 1q36 2 65 2q25 0 25 -12q0 -14 -29 -20q-37 -8 -48 -22t-11 -48v-490
q0 -51 -23.5 -101.5t-56.5 -91.5q-54 -68 -112 -68q-57 0 -86.5 13.5z" />
    <glyph glyph-name="K" unicode="K" horiz-adv-x="710" 
d="M34.5 -1.5q-8.5 3.5 -8.5 9.5q0 7 7.5 11.5t23.5 7.5q38 7 51.5 22t13.5 51v451q0 33 -14 47.5t-53 22.5q-29 6 -29 20q0 6 7.5 9.5t18.5 3.5q27 0 67 -2l56 -1q32 0 48 1l66 1q25 0 25 -12q0 -14 -29 -20q-36 -8 -46.5 -23t-10.5 -47v-193q0 -6 2 -12t5 -6q9 0 26 17
l197 205q17 17 17 31q0 19 -27 25q-15 4 -21.5 9t-6.5 12q0 6 7.5 9t18.5 3h59q42 0 112 2l63 2q10 0 16.5 -3.5t6.5 -8.5q0 -15 -32 -21q-94 -15 -152 -64q-47 -39 -88 -79t-98 -100q-3 -3 -3 -8q0 -7 7 -14l241 -261q31 -34 49.5 -47t57.5 -22q18 -4 25.5 -8t7.5 -11
q0 -13 -33 -13q-21 0 -43.5 1.5t-33.5 1.5q-36 3 -76 3l-39 -1q-30 -2 -57 -2q-26 0 -26 13q0 12 25 18q32 7 32 23q0 10 -15 27l-195 219q-16 16 -23 16q-6 0 -6 -19q0 -89 4 -188q2 -35 14.5 -53.5t47.5 -26.5q16 -3 23.5 -7.5t7.5 -11.5q0 -6 -8 -9.5t-21 -3.5
q-39 0 -67 5q-7 0 -19.5 1.5t-24.5 1.5q-21 0 -57 -4q-42 -4 -73 -4q-12 0 -20.5 3.5z" />
    <glyph glyph-name="L" unicode="L" horiz-adv-x="585" 
d="M31.5 -1q-6.5 4 -6.5 9q0 11 21 18q40 9 57.5 24t17.5 46v461q0 24 -5 35.5t-17 17.5t-40 11q-29 6 -29 20q0 13 26 13q27 0 67 -2q36 -2 56 -2l64 1q44 2 70 2q25 0 25 -12q0 -14 -29 -20q-45 -10 -63.5 -21t-18.5 -38v-463q0 -31 14.5 -44.5t54.5 -13.5h116
q24 0 43.5 7.5t32.5 18.5q18 17 29 32.5t23 41.5q8 16 13 23.5t11 7.5t9.5 -6t3.5 -13q0 -3 -1 -5.5t-1 -5.5q-14 -50 -19.5 -74.5t-8.5 -54.5q-2 -18 -15 -18q-52 0 -172 2q-88 3 -172 3q-47 0 -107 -4l-31 -1q-12 0 -18.5 4z" />
    <glyph glyph-name="M" unicode="M" horiz-adv-x="907" 
d="M19 8q0 7 7 10.5t25 7.5q25 5 41 25t21 53q34 270 40 421q0 21 -1 33q0 24 -18 37q-14 12 -29 17.5t-39 10.5q-11 2 -17.5 7.5t-6.5 12.5q0 8 8 10.5t24 2.5q15 0 34 -1t39 -2q68 -4 91 -4q7 0 13 -5t8 -12q7 -22 8 -29q13 -42 15 -47l154 -383q3 -8 11 -8q5 0 8 6
l178 383l19 81q3 13 12 13h38q18 0 81 5q40 4 49 4q23 0 23 -12q0 -7 -5.5 -11t-19.5 -10q-16 -5 -48 -19q-17 -8 -25 -18.5t-8 -27.5q0 -95 3.5 -170.5t11.5 -176.5l8 -116q1 -29 19.5 -45.5t54.5 -23.5q15 -3 22 -7.5t7 -11.5q0 -12 -26 -12q-37 0 -69 3q-40 2 -61 2
q-18 0 -52 -2q-28 -3 -66 -3q-26 0 -26 12q0 14 29 19q32 5 44 20t12 49q-2 156 -12 345l-1 21q0 9 -4 9q-3 0 -10 -10l-216 -464q-3 -8 -10 -8q-8 0 -11 8q-51 137 -148 368l-42 100q-2 5 -8 5t-7 -8q-23 -193 -23 -359q0 -28 18 -48.5t50 -27.5q16 -3 24 -7.5t8 -11.5
q0 -12 -28 -12q-31 0 -57 2q-24 2 -40 2q-19 0 -49 -2q-28 -2 -47 -2q-28 0 -28 12z" />
    <glyph glyph-name="N" unicode="N" horiz-adv-x="798" 
d="M631 -1q-27 17 -50 49l-108 124q-246 283 -267 306q-11 15 -18 15q-4 0 -6 -6.5t-2 -14.5q-2 -192 -2 -365q0 -66 70 -80q31 -7 31 -19t-28 -12q-30 0 -60 2q-24 2 -40 2q-20 0 -46 -2t-45 -2q-28 0 -28 12q0 7 7 11t24 9q50 14 55 81q7 68 13 177t6 221q0 49 -24 73
t-72 40q-9 3 -19.5 9t-10.5 14t7.5 11.5t16.5 3.5q42 0 75 -3q54 -2 94 -2q7 0 11.5 -3.5t10.5 -11.5l117 -140q64 -76 140 -166.5t129 -152.5q15 -18 22 -18q9 0 10 19v226v155q-1 21 -20 36.5t-44 21.5q-16 3 -27 8t-11 12q0 6 11 9t24 3h71l49 1q32 2 64 2q27 0 27 -13
q0 -14 -31 -20q-36 -7 -49 -18.5t-14 -37.5q-5 -270 -5 -441q0 -28 5 -83l2 -27q0 -32 -24 -32q-14 0 -41 17z" />
    <glyph glyph-name="O" unicode="O" horiz-adv-x="762" 
d="M209.5 27.5q-77.5 41.5 -124 116.5t-46.5 171q0 92 40.5 172t119 128.5t186.5 48.5q90 0 167.5 -41.5t124 -116.5t46.5 -171q0 -92 -40.5 -172t-119 -128.5t-187.5 -48.5q-89 0 -166.5 41.5zM548 97q54 69 54 188q0 92 -26.5 168t-79 121.5t-128.5 45.5
q-101 0 -154.5 -68.5t-53.5 -185.5q0 -92 26 -169t78.5 -123t127.5 -46q102 0 156 69z" />
    <glyph glyph-name="P" unicode="P" horiz-adv-x="571" 
d="M21 8q0 7 7 11.5t22 7.5q39 7 55 22.5t16 49.5v431q0 43 -12.5 63.5t-47.5 27.5q-30 6 -30 20q0 6 7.5 9.5t18.5 3.5q29 0 63 -2l49 -1q21 0 61 4q38 4 59 4q118 0 187.5 -49t69.5 -135q0 -64 -25.5 -115.5t-77 -82t-127.5 -30.5q-22 0 -35 6.5t-13 14.5q0 5 6 10t11 5
t17 -1.5t27 -1.5q53 0 81 48t28 134q0 81 -40 122t-109 41q-61 0 -61 -45l-1 -473q0 -35 16.5 -54t54.5 -26q15 -3 22 -7.5t7 -11.5q0 -12 -26 -12q-10 0 -67 3q-25 3 -51 3q-34 0 -66 -3q-10 0 -31 -1.5t-39 -1.5q-26 0 -26 12z" />
    <glyph glyph-name="Q" unicode="Q" horiz-adv-x="762" 
d="M618.5 -228.5q-55.5 19.5 -106.5 56.5l-17 12q-81 57 -133 101q-50 42 -114 69q-91 40 -150 113.5t-59 191.5q0 92 40.5 172t119 128.5t186.5 48.5q90 0 167.5 -41.5t124 -116.5t46.5 -171q0 -75 -26.5 -142t-79 -117t-126.5 -73q-9 -3 -9 -8q0 -4 5 -9q50 -53 120 -106
q49 -36 92 -51t96 -15q34 0 49 5q9 3 20 3q17 0 17 -12q0 -9 -4 -14.5t-15 -12.5q-52 -31 -123 -31q-65 0 -120.5 19.5zM548.5 97q53.5 68 53.5 188q0 93 -26.5 168.5t-79 120.5t-128.5 45q-101 0 -154.5 -67.5t-53.5 -185.5q0 -93 26 -169.5t78.5 -122t127.5 -45.5
q103 0 156.5 68z" />
    <glyph glyph-name="R" unicode="R" horiz-adv-x="730" 
d="M548.5 -5q-37.5 16 -64.5 51q-41 51 -71 94t-72 114q-13 24 -37 37q-25 12 -63 17q-14 0 -14 -20v-181q0 -33 16.5 -53t54.5 -27q15 -3 22 -7.5t7 -11.5q0 -12 -26 -12q-10 0 -67 3q-25 3 -51 3q-34 0 -66 -3q-10 0 -31 -1.5t-39 -1.5q-26 0 -26 12q0 7 7 11.5t22 7.5
q39 7 55 22.5t16 49.5v434q0 36 -4 52.5t-16 24t-40 11.5q-15 1 -22.5 7t-7.5 13q0 6 7.5 9.5t18.5 3.5q32 0 64 -2l48 -1q17 0 47 2q38 4 76 4q113 0 172 -41t59 -122q0 -61 -35 -100.5t-86 -62.5q-3 -1 -3 -5l2 -8q60 -91 99.5 -142.5t95.5 -102.5q26 -24 53 -30t71 -6
q15 0 15 -14q0 -23 -29 -33.5t-66 -10.5q-54 0 -91.5 16zM374.5 375q37.5 41 37.5 101q0 71 -29 108.5t-105 37.5q-28 0 -37.5 -19t-11.5 -74q-2 -64 -2 -159q0 -22 11.5 -29t36.5 -7q62 0 99.5 41z" />
    <glyph glyph-name="S" unicode="S" horiz-adv-x="475" 
d="M62 31q-13 11 -15 21q-11 32 -13 119q0 7 5.5 10.5t14.5 3.5q14 0 18 -12q20 -73 60.5 -112t90.5 -39t80.5 32t30.5 81q0 36 -12.5 60.5t-34.5 42t-66 43.5q-60 36 -90.5 58t-53.5 56.5t-23 82.5q0 53 26 95.5t75.5 66.5t116.5 24q58 0 113 -23q17 -7 23 -27
q17 -68 17 -106q0 -5 -4.5 -8t-11.5 -3q-9 0 -17 4t-10 10q-20 57 -50.5 85.5t-73.5 28.5q-49 0 -78.5 -26t-29.5 -80q0 -37 33 -66.5t106 -73.5q73 -45 109 -87.5t36 -108.5q0 -93 -61 -145.5t-164 -52.5q-86 0 -147 46z" />
    <glyph glyph-name="T" unicode="T" horiz-adv-x="679" 
d="M184 8q0 7 7 11.5t23 7.5q40 7 58 24t18 50v396q0 63 -4 84t-15 24q-16 4 -62 4h-39q-27 0 -52.5 -12t-37.5 -32q-28 -42 -46 -42q-10 0 -10 14q0 8 6 22q16 31 23 55.5t11 57.5q3 24 20 24q5 0 14.5 -14t12.5 -19q7 -9 28.5 -14t42.5 -5l361 1q57 0 85 14q12 8 16 12
q2 1 9.5 6.5t17.5 5.5q4 0 6 -6.5t2 -14.5q0 -7 -3 -25l-7 -30q-3 -11 -5 -21.5t-2 -23.5v-14q0 -13 -4.5 -23.5t-11.5 -10.5q-8 0 -12.5 9.5t-10.5 31.5q-6 27 -27.5 40.5t-66.5 13.5h-84q-22 0 -32 -6.5t-13.5 -29.5t-3.5 -76v-396q0 -32 18.5 -48.5t58.5 -25.5
q15 -3 22 -7.5t7 -11.5q0 -12 -26 -12q-37 0 -69 3q-40 2 -60 2q-23 0 -65 -2q-33 -3 -71 -3q-27 0 -27 12z" />
    <glyph glyph-name="U" unicode="U" horiz-adv-x="740" 
d="M168.5 55.5q-70.5 69.5 -70.5 189.5v299q0 31 -13 50t-34 25q-32 9 -32 22t28 13q18 0 52 -2q38 -2 56 -2t56 2l44 1q28 0 28 -13q0 -6 -6.5 -10t-17 -7.5t-14.5 -5.5q-15 -5 -27.5 -25t-12.5 -49v-274q0 -109 53 -164.5t140 -55.5q96 0 144 64t48 182q0 135 -2 206
q-2 50 -12.5 79t-33.5 38q-2 1 -12.5 4.5t-16.5 8t-6 9.5q0 12 29 12l46 -1q12 -1 37 -1q18 0 46 2q26 2 38 2q28 0 28 -13t-31 -20q-28 -6 -40 -26t-14 -54q-6 -116 -8 -242l-1 -45q-1 -78 -36.5 -139t-95.5 -95t-133 -34q-133 0 -203.5 69.5z" />
    <glyph glyph-name="V" unicode="V" horiz-adv-x="684" 
d="M314 -4q-11 26 -26 70l-187 482q-23 58 -71 71q-16 6 -23 10.5t-7 11.5q0 12 26 12l57 -1q50 -2 74 -2t72 2l49 1q12 0 20 -3t8 -9q0 -8 -8.5 -14t-22.5 -7q-63 -8 -63 -39q0 -16 4 -28t5 -14l139 -373q2 -6 5 -6t6 7l129 341q11 28 11 51q0 26 -15.5 41.5t-42.5 18.5
q-14 2 -23 8t-9 13q0 6 8 9t21 3q29 0 43 -1l55 -1q23 0 63 2q36 2 49 2q30 0 30 -13q0 -7 -7.5 -11.5t-23.5 -8.5q-64 -15 -95 -90l-175 -424l-21 -51q-22 -53 -25 -60q-5 -10 -14 -10q-11 0 -15 10z" />
    <glyph glyph-name="W" unicode="W" horiz-adv-x="953" 
d="M331 11l-229 543q-12 26 -28.5 42t-41.5 23q-17 6 -24.5 10.5t-7.5 11.5q0 12 28 12l51 -1q36 -2 54 -2q21 0 59 2l44 1q29 0 29 -12q0 -8 -7 -12t-25 -9q-13 -3 -17 -10.5t-4 -21.5q0 -11 2.5 -22.5t4.5 -15.5q67 -169 161 -384q6 -11 9 -11q4 0 7 10l70 161q6 14 6 22
q0 6 -7 25l-73 170q-11 28 -36 48t-54 28q-16 6 -23 10.5t-7 11.5q0 12 26 12l54 -1q38 -2 57 -2q17 0 51 2l41 1q14 0 22.5 -3t8.5 -9q0 -5 -5 -9t-14 -9q-2 -1 -10 -6t-11 -12q-7 -3 -7 -10q0 -2 2 -8q34 -90 46 -117q6 -12 9 -12t9 12q13 29 32 85l10 28l2 12
q0 9 -5.5 14.5t-17.5 11.5q-2 1 -7.5 4.5t-8 7t-2.5 7.5q0 12 27 12q17 0 30 -1t24 -1t27 2q22 2 37 2q13 0 21 -3.5t8 -9.5q0 -7 -7.5 -11.5t-23.5 -8.5q-29 -7 -41.5 -18t-27.5 -35q-18 -33 -58 -129q-6 -16 -6 -28q0 -8 3 -14l93 -234q3 -5 5 -5q3 0 7 9q49 122 129 373
q8 23 8 41q-2 31 -30 38q-32 10 -32 21q0 6 8 9t21 3l41 -1q10 -1 30 -1q11 0 35 2q34 2 51 2q31 0 31 -13q0 -7 -8 -11.5t-24 -8.5q-31 -7 -49.5 -29t-30.5 -52l-196 -531q-8 -22 -18 -22q-9 0 -19 19q-24 53 -73 171l-47 115q-3 6 -5 6q-3 0 -7 -10q-74 -167 -118 -276
q-10 -28 -22 -28q-6 0 -16 27z" />
    <glyph glyph-name="X" unicode="X" horiz-adv-x="722" 
d="M3 -2.5q-8 3.5 -8 9.5q0 7 7 11.5t24 10.5q31 9 69 33.5t67 61.5l124 156q15 18 15 34q0 14 -12 30l-137 192q-29 41 -52 59t-52 26q-16 5 -23 9.5t-7 12.5q0 6 7 9t19 3q32 0 71 -3q14 -1 36.5 -2t51.5 -1q26 0 66 2q34 2 43 2q13 0 21 -3t8 -9q0 -7 -7.5 -11.5
t-24.5 -9.5q-30 -9 -42 -15.5t-12 -18.5q0 -15 28 -52l92 -129q11 -15 17 -15t15 12l98 132q25 33 25 52q0 12 -10 20t-34 13q-33 9 -33 21q0 6 8.5 9t21.5 3q27 0 40 -1l45 -1q14 0 32.5 1t28.5 2q26 3 48 3q31 0 31 -12q0 -8 -7.5 -12t-24.5 -8q-44 -13 -116 -98
l-123 -148q-16 -17 -16 -28q0 -6 6 -17l160 -228q19 -29 44 -49t50 -27q34 -8 34 -22q0 -12 -28 -12q-33 0 -74 3q-15 1 -37 2t-50 1l-64 -1q-16 -1 -45 -1q-12 0 -20 3.5t-8 9.5q0 10 31 20q20 5 34.5 16.5t14.5 28.5q0 14 -11 29l-106 152q-11 14 -17 14t-13 -10
l-120 -160q-12 -17 -12 -33q1 -14 13 -24t32 -14q32 -8 32 -21q0 -12 -29 -12q-26 0 -42 1l-51 1q-15 0 -35.5 -1.5t-30.5 -1.5q-28 -3 -55 -3q-13 0 -21 3.5z" />
    <glyph glyph-name="Y" unicode="Y" horiz-adv-x="605" 
d="M157 7q0 14 32 20q74 13 74 82v144q0 36 -27 84l-121 194q-21 33 -41.5 57.5t-43.5 30.5q-16 6 -23 10.5t-7 11.5q0 12 26 12q17 0 59 -2q46 -2 74 -2q19 0 53 2q30 2 43 2q12 0 20 -3t8 -9q0 -13 -31 -21q-21 -5 -30 -11t-9 -18q0 -13 12 -36l96 -173q16 -30 25 -30
q5 0 10.5 6t16.5 24q31 51 86 153q16 28 16 47q0 18 -13.5 26.5t-32.5 10.5q-11 2 -21.5 8t-10.5 13q0 6 8 9t21 3l43 -1q13 -1 41 -1q23 0 61 2q30 2 42 2q30 0 30 -13q0 -7 -10.5 -11.5t-34.5 -11.5q-26 -7 -44.5 -25.5t-43.5 -57.5l-22 -34l-93 -150q-16 -28 -20.5 -45
t-4.5 -47v-150q0 -35 18 -54.5t57 -27.5q16 -3 24 -7.5t8 -11.5q0 -13 -29 -13q-18 0 -38 1.5t-30 1.5q-30 3 -60 3q-32 0 -64 -3q-10 0 -31 -1.5t-39 -1.5q-29 0 -29 12z" />
    <glyph glyph-name="Z" unicode="Z" horiz-adv-x="601" 
d="M363 -3q-82 2 -122 2q-86 -2 -129 -2l-77 -1q-5 0 -7.5 8.5t-1.5 11.5q4 11 22 39.5t36 53.5q20 29 46 66.5t57 81.5q166 242 224 330q4 8 4 11q0 9 -18 9q-62 2 -122 2q-66 0 -91 -2q-32 -2 -62 -22t-46 -56q-8 -16 -15 -24t-18 -8t-11 13q0 8 7 27q22 56 28 122
q1 20 17 20q5 0 18 -7t20 -11q14 -6 37.5 -10t48.5 -4h123q100 0 230 4q5 0 10.5 -8t2.5 -12l-64 -91q-84 -119 -151.5 -219t-159.5 -244q-6 -10 -6 -17q0 -6 4 -10.5t11 -5.5q50 -4 100 -4q83 0 137 9q37 6 63.5 31.5t45.5 73.5q2 7 8.5 12.5t12.5 5.5q11 0 11 -13
t-13.5 -67t-22.5 -79q-7 -18 -21 -18q-48 0 -166 2z" />
    <glyph glyph-name="bracketleft" unicode="[" horiz-adv-x="340" 
d="M122.5 -198.5q-6.5 1.5 -9.5 8.5t-3 24v827q0 21 3 29t10 10t26 2l154 -1q20 0 20 -14q0 -15 -29 -17l-80 -8q-8 -2 -14.5 -9.5t-6.5 -15.5v-759q0 -12 6 -20t15 -10l78 -12q14 -3 22 -7t8 -12q0 -9 -7.5 -13t-17.5 -4h-153q-15 0 -21.5 1.5z" />
    <glyph glyph-name="backslash" unicode="\" horiz-adv-x="401" 
d="M339.5 -59q-9.5 3 -14.5 13l-301 693q-1 2 -1 6q0 6 4 9.5t12 3.5q16 0 26 -4t16 -15l301 -693q1 -1 1 -4q0 -5 -5 -8.5t-13 -3.5q-16 0 -25.5 3z" />
    <glyph glyph-name="bracketright" unicode="]" horiz-adv-x="340" 
d="M217.5 -198.5q6.5 1.5 9.5 8.5t3 24v827q0 21 -3 29t-10 10t-26 2l-154 -1q-20 0 -20 -14q0 -15 29 -17l80 -8q8 -2 14.5 -9.5t6.5 -15.5v-759q0 -12 -6 -20t-15 -10l-78 -12q-14 -3 -22 -7t-8 -12q0 -9 7.5 -13t17.5 -4h153q15 0 21.5 1.5z" />
    <glyph glyph-name="asciicircum" unicode="^" horiz-adv-x="505" 
d="M47 275.5q-4 3.5 -4 9.5l2 9l204 311h5l205 -311q3 -4 3 -9t-3.5 -9t-9.5 -4q-12 0 -25 7t-19 16l-149 215q-4 5 -5.5 5t-4.5 -5l-146 -214q-7 -10 -20 -17t-24 -7q-5 0 -9 3.5z" />
    <glyph glyph-name="underscore" unicode="_" horiz-adv-x="532" 
d="M527 -134.5q5 -3.5 5 -8.5q0 -12 -10 -26.5t-22 -14.5h-485q-6 0 -10.5 4t-4.5 9q0 11 6.5 25.5t18.5 14.5h490q7 0 12 -3.5z" />
    <glyph glyph-name="grave" unicode="`" horiz-adv-x="213" 
d="M150 475q-24 23 -58.5 63t-56.5 70q-1 1 -5.5 8t-4.5 14q0 11 15 16.5t38 5.5q22 0 33 -20q15 -27 39.5 -74.5t33.5 -72.5q4 -12 4 -19q0 -10 -9 -10q-10 0 -29 19z" />
    <glyph glyph-name="a" unicode="a" horiz-adv-x="413" 
d="M80.5 -0.5q-20.5 13.5 -33.5 34t-13 40.5q0 32 18 52t58 37l97 41q20 8 24 14t5 27l2 61q1 28 -13.5 45.5t-40.5 17.5q-14 0 -28.5 -5t-23.5 -13q-8 -8 -8 -26l1 -22q0 -8 -28.5 -22.5t-45.5 -14.5q-6 0 -9.5 4t-3.5 9q0 33 42 69q35 31 80 51.5t77 20.5q42 0 68 -28.5
t25 -73.5l-5 -226q-1 -22 9 -36t25 -14q24 0 36 12q4 4 7 4q5 0 8.5 -3.5t3.5 -7.5q0 -11 -14 -25q-17 -17 -36.5 -26.5t-37.5 -9.5q-51 0 -80 54h-3q-33 -29 -62 -41.5t-60 -12.5q-20 0 -40.5 13.5zM222 61q10 10 11 36l2 57v5q0 14 -9 14q-6 0 -17 -5q-44 -17 -62.5 -35
t-18.5 -41q0 -25 13.5 -38.5t31.5 -13.5q28 0 49 21z" />
    <glyph glyph-name="b" unicode="b" horiz-adv-x="525" 
d="M174 0l-22 6q-26 8 -33 8q-12 0 -27 -13q-8 -6 -11 -6q-6 0 -11 4t-5 9q0 7 3 22q1 6 3.5 24.5t2.5 34.5l-2 471q0 27 -11 46.5t-32 26.5q-13 4 -13 15q0 10 12 12q30 6 121 42q6 3 10 3q8 0 8 -9q0 -4 -1.5 -30.5t-1.5 -59.5l-1 -208q0 -31 9 -31q31 24 69.5 38.5
t70.5 14.5q50 0 92 -26.5t66 -72t24 -101.5q0 -69 -29 -122t-81 -82.5t-119 -29.5q-37 0 -91 14zM366 71q30 50 30 125q0 42 -14 82.5t-42 67.5t-69 27q-32 0 -60 -10t-48 -27v-201q0 -50 37 -82t86 -32q50 0 80 50z" />
    <glyph glyph-name="c" unicode="c" horiz-adv-x="408" 
d="M119.5 11.5q-41.5 26.5 -65 72.5t-23.5 103q0 64 29 117.5t78 84.5t108 31q72 0 122 -41q11 -9 11 -19q0 -12 -16 -27.5t-29 -15.5q-6 0 -12.5 4t-12.5 9q-25 20 -51.5 34t-44.5 14q-45 0 -71.5 -41t-26.5 -113q0 -71 40.5 -117.5t103.5 -46.5q29 0 50.5 9.5t45.5 32.5
q10 6 13 6q5 0 8 -4t3 -10q0 -12 -12 -30q-23 -33 -64 -56t-91 -23q-51 0 -92.5 26.5z" />
    <glyph glyph-name="d" unicode="d" horiz-adv-x="523" 
d="M350 -14q-5 5 -5 7q0 6 2 22q3 20 3 36v6q-18 -29 -53 -50t-78 -21q-55 0 -97.5 29t-66.5 76.5t-24 100.5q0 62 28.5 114t81 83t120.5 31q33 0 68 -11l13 -3q3 0 5 5.5t2 15.5v133q0 37 -11 52.5t-36 20.5q-4 1 -7 5t-3 9q0 10 9 13q60 14 120 39q12 5 17 5q8 0 8 -8
q0 -3 -3 -30.5t-3 -81.5l-2 -471q0 -35 5 -49.5t17 -14.5l42 3h5q6 0 8.5 -2t2.5 -8q0 -7 -5 -13.5t-10 -6.5q-61 -7 -129 -35q-12 -6 -17 -6q-2 0 -7 5zM307 55.5q24 11.5 41 30.5v195q0 24 -15 47t-40.5 37.5t-55.5 14.5q-26 0 -51.5 -16.5t-42.5 -53.5t-17 -94
q0 -62 22 -100.5t53 -55t59 -16.5q23 0 47 11.5z" />
    <glyph glyph-name="e" unicode="e" horiz-adv-x="400" 
d="M116 13q-42 28 -65.5 77.5t-23.5 113.5q0 58 27.5 107.5t74 79t100.5 29.5q62 0 102.5 -37t40.5 -93q0 -17 -7.5 -25t-23.5 -8h-207q-14 0 -19.5 -8t-5.5 -29q0 -44 19 -81t52.5 -58.5t73.5 -21.5q56 0 100 44q5 8 11 8q9 0 9 -11q0 -15 -14 -38q-21 -34 -60.5 -55.5
t-87.5 -21.5q-54 0 -96 28zM215 291q45 0 69 5q9 3 9 25q0 28 -23 47.5t-55 19.5q-21 0 -43 -13t-35.5 -33t-13.5 -39q0 -12 13 -12h79z" />
    <glyph glyph-name="f" unicode="f" horiz-adv-x="333" 
d="M23 9q0 7 5 11t16 6q25 7 34 15.5t9 27.5v283q-31 0 -52 2q-4 1 -9 8.5t-5 13.5q0 4 8 7q22 10 58 28q2 105 38.5 171t89.5 95t105 29q59 0 88 -17t29 -49q0 -21 -10 -32.5t-26 -11.5q-8 0 -15.5 6t-19.5 19q-18 19 -38 30.5t-50 11.5q-46 0 -72.5 -40t-26.5 -119v-86
q0 -11 13 -11h120q7 0 10.5 -3.5t3.5 -9.5q0 -19 -6 -31q-5 -8 -9 -8h-107q-15 0 -20 -4t-5 -13v-263q0 -23 13 -33t53 -15q11 -2 16 -6t5 -11q0 -6 -5 -9.5t-13 -3.5q-31 0 -60 3q-36 2 -53 2t-43 -2q-21 -3 -49 -3q-20 0 -20 12z" />
    <glyph glyph-name="g" unicode="g" horiz-adv-x="458" 
d="M460 391q4 -5 4 -13q0 -5 -3 -12.5t-8 -12.5q-6 -6 -10 -6h-27q-26 0 -31 -8q-6 -12 -6 -46q0 -51 -23.5 -94.5t-63 -69.5t-85.5 -26q-28 0 -58 11q-15 -8 -24.5 -18.5t-9.5 -18.5q0 -19 32 -30t102 -16q98 -6 144 -31t46 -71q0 -52 -35 -103t-90.5 -83.5t-111.5 -32.5
q-89 0 -140.5 31.5t-51.5 86.5q0 28 8 45.5t27 33.5l75 58q-43 11 -62 30t-19 49q0 21 24 38q21 16 35 27t20 19q-36 22 -58.5 56.5t-22.5 74.5q0 47 25.5 84t68 58t90.5 21q28 0 72 -12q20 -6 30 -8q34 -9 72 -9q11 0 33 2l22 1q6 0 10 -5zM273 178q23 37 23 95
q0 47 -26 81t-61 34q-33 0 -57.5 -35t-24.5 -82q0 -54 26 -92t62 -38q35 0 58 37zM325 -70q-32 15 -111 21l-52 6q-38 -25 -54.5 -50t-16.5 -58q0 -41 35 -68t87 -27q63 0 96 27q23 18 35.5 45.5t12.5 58.5q0 30 -32 45z" />
    <glyph glyph-name="h" unicode="h" horiz-adv-x="531" 
d="M18 9q0 6 5 10t18 8q20 6 30.5 13.5t10.5 26.5v493q0 30 -9 49t-33 23q-9 2 -9 15q0 10 8 13q25 6 61.5 19t64.5 24q6 2 9 2q8 0 8 -9q0 -5 -4 -28.5t-4 -83.5v-194q0 -23 6 -34q35 27 71.5 45.5t78.5 18.5q51 0 84.5 -38.5t33.5 -99.5v-213q0 -18 10.5 -27t29.5 -15
q12 -4 17 -8t5 -10q0 -12 -21 -12q-28 0 -46 3q-22 2 -40 2t-40 -2q-16 -3 -45 -3q-21 0 -21 12q0 7 5 10.5t17 7.5q18 6 28 15t10 28v202q0 34 -26.5 59.5t-56.5 25.5q-20 0 -42 -5.5t-36 -16.5q-13 -10 -17.5 -22t-4.5 -37v-209q1 -18 10 -26t27 -14q22 -7 22 -18
q0 -12 -20 -12q-28 0 -46 3q-24 2 -40 2q-17 0 -41 -2q-21 -3 -48 -3q-20 0 -20 12z" />
    <glyph glyph-name="i" unicode="i" horiz-adv-x="263" 
d="M23 9q0 11 21 17q25 7 35 14.5t10 23.5v216q0 64 -45 71q-10 1 -10 15q0 12 9 13q65 14 123 53q12 7 16 7q8 0 8 -8q0 -6 -4 -46q-6 -60 -6 -93v-228q0 -15 10.5 -23.5t34.5 -14.5q21 -6 21 -17q0 -12 -18 -12q-26 0 -49 3q-28 2 -45 2t-43 -2q-21 -3 -49 -3
q-19 0 -19 12zM89.5 525.5q-17.5 17.5 -17.5 42.5q0 26 17.5 43.5t42.5 17.5q26 0 44 -17.5t18 -43.5q0 -25 -18 -42.5t-44 -17.5q-25 0 -42.5 17.5z" />
    <glyph glyph-name="j" unicode="j" horiz-adv-x="240" 
d="M-17.5 -284q-8.5 3 -8.5 9t4.5 11t9.5 7q19 7 34.5 20.5t28.5 40.5q18 39 25 112.5t7 146.5v217q0 63 -46 71q-4 1 -6.5 5.5t-2.5 9.5t2.5 8.5t6.5 4.5q36 8 63 21.5t58 31.5l16 7q9 0 9 -8q-9 -90 -9 -152l1 -188q0 -67 -6.5 -128.5t-26.5 -114.5q-21 -52 -63.5 -93.5
t-76.5 -41.5q-11 0 -19.5 3zM79.5 525.5q-17.5 17.5 -17.5 42.5q0 26 17.5 43.5t42.5 17.5q26 0 44 -17.5t18 -43.5q0 -25 -18 -42.5t-44 -17.5q-25 0 -42.5 17.5z" />
    <glyph glyph-name="k" unicode="k" horiz-adv-x="496" 
d="M18 9q0 6 4.5 9t10.5 5.5t8 3.5q20 6 30.5 13.5t10.5 26.5v493q0 34 -9.5 50.5t-33.5 22.5q-9 2 -9 14q0 11 8 13q44 9 81.5 24t44.5 18q6 3 10 3q7 0 7 -10q0 -7 -3.5 -36t-3.5 -75v-344q0 -10 6 -10q13 0 29 15q36 32 65.5 62t40.5 45q9 12 9 16q0 5 -8 9.5t-20 6.5
q-12 1 -12 10q0 13 22 13h49q16 0 72 7q30 4 37 4q13 0 13 -11q0 -12 -24 -19q-35 -9 -73 -33q-15 -9 -52 -38.5t-69 -58.5q-6 -4 -6 -10q0 -4 4 -8q66 -84 143 -164q15 -15 37 -28.5t40 -20.5q15 -5 22 -8t7 -10q0 -12 -20 -12l-97 1q-68 2 -104 2q-19 0 -19 11q0 12 19 17
q12 4 17.5 8.5t5.5 12.5q0 6 -8 16l-113 136q-4 6 -8 6q-5 0 -5 -7q-1 -20 -1 -64q0 -47 1 -70q0 -17 8 -25.5t25 -13.5q11 -4 16.5 -7.5t5.5 -10.5q0 -6 -7 -9t-14 -3q-26 0 -43 3q-22 2 -38 2q-17 0 -41 -2q-19 -3 -46 -3q-22 0 -22 12z" />
    <glyph glyph-name="l" unicode="l" horiz-adv-x="256" 
d="M18 8q0 7 5.5 10.5t17.5 8.5q22 7 31.5 13.5t9.5 24.5v495q0 64 -44 73q-8 2 -8 14q0 11 7 13q43 9 81.5 24.5t46.5 18.5q6 2 9 2t4.5 -3t1.5 -6q0 -6 -3 -34.5t-3 -77.5v-519q0 -18 10 -25t31 -13q23 -8 23 -19q0 -10 -20 -10t-48 2q-26 2 -43 2q-16 0 -42 -2
q-19 -3 -47 -3q-20 0 -20 11z" />
    <glyph glyph-name="m" unicode="m" horiz-adv-x="788" 
d="M23 9q0 7 5.5 10.5t17.5 7.5q21 7 31 13.5t10 24.5v220q0 29 -7 45.5t-28 20.5q-10 2 -10 14q0 13 9 14q36 9 61 21t58 32q8 4 10 4q7 0 7 -8l-2 -22q-1 -7 -2 -18t-1 -23q0 -10 2 -12h2q69 67 153 67q70 0 99 -72h3q72 72 159 72q47 0 75.5 -40.5t28.5 -99.5v-216
q0 -18 9.5 -24t31.5 -13q11 -3 16.5 -7t5.5 -11q0 -12 -19 -12q-27 0 -47 3q-24 2 -41 2t-41 -2q-19 -3 -47 -3q-19 0 -19 12q0 7 5.5 11t16.5 7q18 5 27.5 12t9.5 23v209q0 36 -21 63t-50 27q-46 0 -77 -26q-23 -18 -23 -61v-210q0 -18 10 -25t30 -12q11 -4 16.5 -7.5
t5.5 -10.5q0 -12 -19 -12q-27 0 -47 3q-24 2 -41 2t-41 -2q-19 -3 -47 -3q-8 0 -13.5 3t-5.5 9q0 7 5.5 10.5t16.5 7.5q18 5 28 12t10 23v209q0 36 -20.5 62.5t-50.5 27.5q-44 0 -77 -26q-22 -15 -22 -60v-211q0 -17 9 -24t28 -13q11 -4 16.5 -7.5t5.5 -10.5q0 -12 -19 -12
q-28 0 -46 3q-24 2 -40 2t-42 -2q-19 -3 -48 -3q-20 0 -20 12z" />
    <glyph glyph-name="n" unicode="n" horiz-adv-x="541" 
d="M28.5 0q-5.5 3 -5.5 9q0 7 5.5 11t17.5 7q20 5 30.5 12.5t10.5 25.5v220q0 29 -7 44.5t-28 21.5q-10 2 -10 14q0 13 9 14q64 17 116 51q8 6 13 6q7 0 7 -9l-2 -20q-1 -7 -2 -18t-1 -23q0 -11 2 -13q35 34 73 50.5t84 16.5q50 0 83 -39.5t33 -100.5v-216q0 -18 10 -24
t32 -13q22 -8 22 -19t-19 -11q-28 0 -48 3q-26 2 -42 2t-42 -2q-19 -3 -48 -3q-7 0 -13 2.5t-6 8.5q0 11 22 19q22 7 31.5 13t9.5 24v207q0 41 -22 64.5t-59 24.5q-55 0 -98 -35q-8 -8 -8 -21v-240q0 -18 10 -25t30 -12q22 -6 22 -18t-19 -12q-27 0 -47 3q-24 2 -41 2
q-16 0 -42 -2q-21 -3 -49 -3q-9 0 -14.5 3z" />
    <glyph glyph-name="o" unicode="o" horiz-adv-x="498" 
d="M131.5 12q-46.5 26 -73.5 73t-27 105t30 111.5t82 86.5t113 33q58 0 106.5 -28t76.5 -75t28 -101q0 -62 -26.5 -115t-79 -84.5t-126.5 -31.5q-57 0 -103.5 26zM344 68q21 39 21 125q0 50 -16 94t-44.5 71t-65.5 27q-24 0 -42 -7.5t-33 -25.5q-17 -22 -24 -56.5t-7 -82.5
q0 -49 16 -93t44.5 -71.5t62.5 -27.5q62 0 88 47z" />
    <glyph glyph-name="p" unicode="p" horiz-adv-x="530" 
d="M25 -274q-7 3 -7 8q0 11 23 19q22 7 31.5 14t9.5 24v497q0 18 -12 40.5t-32 26.5q-10 3 -10 15t9 14q56 13 125 43q2 1 3.5 2t4.5 1t5 -3.5t2 -6.5l-2 -25q-3 -18 -3 -35q0 -8 1 -9q11 11 38 27t60.5 28t62.5 12q50 0 87.5 -27.5t58 -71.5t20.5 -92q0 -60 -31 -116
t-83 -91t-114 -35q-21 0 -50 8.5t-44 19.5q-2 0 -3 -15.5t-1 -24.5v-179q0 -17 12 -24.5t26 -12t18 -5.5q11 -4 17 -7.5t6 -10.5q0 -5 -6.5 -8t-14.5 -3q-29 0 -54 3q-32 2 -49 2q-18 0 -42 -2q-21 -3 -48 -3q-7 0 -14 3zM329.5 38.5q27.5 17.5 48 56t20.5 98.5
q0 99 -39 135.5t-83 36.5q-21 0 -44.5 -9t-39.5 -21t-16 -20l-1 -102q-1 -24 -1 -54q0 -34 15.5 -66t40.5 -52t51 -20q21 0 48.5 17.5z" />
    <glyph glyph-name="q" unicode="q" horiz-adv-x="527" 
d="M303 -283q-6 3 -6 8q0 11 23 19q23 7 34.5 15t11.5 26v229q0 27 -6 27t-9 -3q-22 -18 -57 -35t-67 -17q-53 0 -98 24.5t-71.5 69t-26.5 103.5q0 68 30 122t86 85t131 31q49 0 89.5 -11.5t43.5 -11.5q10 0 16.5 5t13.5 16q5 5 10 5q6 0 11 -3.5t5 -7.5q0 -6 -3 -20
q-8 -53 -8 -93v-518q0 -16 11.5 -23t36.5 -15q23 -8 23 -19q0 -6 -6 -8.5t-14 -2.5q-28 0 -51 3q-30 2 -46 2t-44 -2q-21 -3 -50 -3q-7 0 -13 3zM326.5 54.5q27.5 10.5 40.5 25.5q0 166 -1 197q-1 45 -33 76.5t-77 31.5q-33 0 -61 -21.5t-44.5 -61.5t-16.5 -92
q0 -55 20.5 -92.5t52 -55.5t64.5 -18q28 0 55.5 10.5z" />
    <glyph glyph-name="r" unicode="r" horiz-adv-x="362" 
d="M26 9q0 7 5.5 11t17.5 7q20 4 29 13.5t9 24.5v220q0 27 -8 43.5t-29 21.5q-4 1 -7.5 5t-3.5 10q0 10 10 14q26 7 57.5 21t54.5 27q13 8 18 8q7 0 7 -8l-3 -77q0 -4 2 -4q26 33 57.5 54t61.5 21q26 0 40 -10.5t14 -27.5q0 -19 -14.5 -40t-31.5 -21q-8 0 -32 11
q-4 2 -14.5 6.5t-18.5 4.5q-29 0 -48 -20t-19 -68v-188q0 -15 12 -24t40 -18q12 -3 17.5 -7t5.5 -10q0 -12 -19 -12q-29 0 -53 3q-30 2 -46 2t-42 -2q-21 -3 -49 -3q-20 0 -20 12z" />
    <glyph glyph-name="s" unicode="s" horiz-adv-x="336" 
d="M42 21q-6 11 -9.5 38.5t-3.5 53.5q0 10 15 10q5 0 9.5 -2.5t6.5 -6.5q14 -46 41 -70.5t60 -24.5q28 0 46 18.5t18 44.5t-17.5 44.5t-59.5 43.5q-52 30 -77 59.5t-25 70.5q0 53 39 87t105 34q29 0 52.5 -6t34.5 -14q8 -11 13.5 -35.5t5.5 -50.5q0 -4 -4 -6t-9 -2
q-7 0 -13.5 3.5t-7.5 7.5q-28 71 -80 71q-25 0 -43.5 -15.5t-18.5 -40.5q0 -22 16 -39.5t53 -38.5q64 -36 90.5 -65.5t26.5 -75.5q0 -59 -42 -93.5t-112 -34.5q-67 0 -110 35z" />
    <glyph glyph-name="t" unicode="t" horiz-adv-x="335" 
d="M115.5 17q-29.5 31 -29.5 91v232q0 8 -7 11.5t-25 3.5h-8q-6 0 -10 8t-4 17q0 3 2.5 6t4.5 4q28 16 58 41t51 47l7 7t13 6q15 0 14 -15l-6 -49v-4q0 -9 6 -12.5t18 -3.5h116q3 0 6 -7t3 -14q0 -11 -3 -21t-7 -10h-97q-25 0 -32.5 -5t-7.5 -23v-194q0 -42 17 -64.5
t48 -22.5q26 0 41.5 4t29.5 13l5 2q8 0 8 -16q0 -7 -19.5 -22.5t-48.5 -28t-59 -12.5q-55 0 -84.5 31z" />
    <glyph glyph-name="u" unicode="u" horiz-adv-x="535" 
d="M351 -11l2 29q3 18 3 33v8q-70 -73 -163 -73q-49 0 -80.5 34t-31.5 92v198q0 22 -10 35.5t-32 20.5q-14 4 -14 17q0 15 15 17q34 2 57 6t58 13q10 2 13 2q12 0 11 -14q-7 -43 -7 -77v-194q0 -36 23 -61.5t53 -26.5q26 0 43 4t33 17q36 28 36 71v175q0 26 -19.5 38.5
t-42.5 13.5q-22 0 -22 18q0 17 22 17q55 2 82.5 5.5t56.5 11.5q6 2 11 2q6 0 10 -3t4 -8q0 -3 -1 -5.5t-2 -5.5q-2 -12 -4.5 -35t-2.5 -35v-231q0 -46 18 -46l40 2q16 0 16 -15q0 -14 -15 -16q-38 -5 -67.5 -14t-62.5 -22q-14 -7 -22 -7t-8 9z" />
    <glyph glyph-name="v" unicode="v" horiz-adv-x="454" 
d="M211 -3q-7 18 -9 22l-28 74q-26 66 -58 138l-42 99q-8 20 -21.5 34.5t-29.5 19.5q-10 4 -14 7.5t-4 10.5q0 10 21 10q28 0 44 -3q20 -2 38 -2t42 2q20 3 47 3q7 0 14 -2.5t7 -7.5q0 -7 -4.5 -10t-10.5 -5.5t-8 -3.5q-10 -4 -15.5 -15t-5.5 -26q0 -20 4 -29l75 -194
q2 -1 3 0l70 182q7 17 7 38q0 18 -6.5 28.5t-21.5 15.5q-13 4 -18 7.5t-5 10.5q0 11 21 11q9 0 25 -2q28 -2 47 -2q18 0 38 2q14 2 25 2q21 0 21 -10q0 -7 -5 -11t-17 -8q-16 -5 -33.5 -23.5t-26.5 -42.5l-78 -191q-9 -19 -20 -46.5t-16 -42.5q-2 -5 -12 -27.5t-16 -30.5
h-12q-5 0 -12 18z" />
    <glyph glyph-name="w" unicode="w" horiz-adv-x="709" 
d="M219 -17l-141 347q-7 20 -21 34t-30 19q-22 7 -22 19q0 10 21 10q22 0 42 -3q24 -2 40 -2t44 2q22 3 46 3q7 0 14 -2.5t7 -7.5q0 -6 -4.5 -9.5t-10 -6t-8.5 -3.5q-21 -6 -21 -39q0 -12 6 -30l71 -185q2 -3 4 -3q3 0 4 3l68 160q7 20 7 42q0 17 -14 30.5t-33 21.5
q-11 4 -16 7.5t-5 11.5q0 10 22 10q10 0 34 -2q19 -3 45 -3q29 0 51 3q28 2 39 2q21 0 21 -11q0 -7 -5.5 -10.5t-17.5 -7.5q-14 -5 -22 -12.5t-8 -22.5q0 -17 7 -34l70 -180q3 -8 6 -8t6 7l69 165q7 17 7 40q0 16 -10 28t-23 16q-12 4 -17.5 8t-5.5 11q0 10 21 10
q18 0 38 -2t35 -2q17 0 33 2t28 2q21 0 21 -10q0 -11 -21 -19q-16 -5 -30.5 -22.5t-24.5 -41.5l-138 -335q-3 -8 -12 -8q-6 0 -11 8l-111 268q-1 6 -5 6q-2 0 -5 -7l-112 -267q-5 -9 -12 -9t-10 9z" />
    <glyph glyph-name="x" unicode="x" horiz-adv-x="456" 
d="M9 6q0 7 5 11t16 8q15 5 29 16.5t33 38.5l83 113q6 7 6 13t-4 11l-80 120q-14 22 -23.5 31.5t-23.5 13.5q-11 4 -16.5 8t-5.5 11q0 10 20 10q22 0 44 -2t46 -2l34 1q20 2 35 2q23 0 23 -11q0 -5 -3.5 -7.5t-9 -4.5t-7.5 -3q-12 -4 -17.5 -8t-5.5 -12q0 -11 13 -31l46 -69
q5 -6 9 0l44 69q10 15 10 30q0 14 -15 18q-2 1 -8.5 4t-10 6.5t-3.5 8.5q0 10 23 10l29 -1q9 -1 26 -1q18 0 40 2q14 2 23 2q22 0 22 -10q0 -12 -22 -19q-41 -14 -65 -48l-66 -95q-3 -4 -3 -8t3 -10l93 -149q23 -37 55 -47q11 -4 16 -8t5 -11q0 -10 -21 -10t-45 2
q-26 2 -50 2q-15 0 -43 -2l-44 -1q-12 0 -18 3.5t-6 7.5q0 8 6 12.5t19 7.5q28 8 28 29q0 12 -8 24l-56 89q-1 1 -3 1t-3 -1l-60 -93q-8 -13 -8 -27q0 -19 16 -24q11 -4 16.5 -7.5t5.5 -10.5q0 -11 -23 -11l-30 1q-10 1 -26 1q-19 0 -43 -2q-16 -2 -25 -2q-21 0 -21 10z" />
    <glyph glyph-name="y" unicode="y" horiz-adv-x="453" 
d="M30 -271.5q-18 12.5 -18 35.5q0 20 9.5 34.5t26.5 14.5q9 0 25 -4q4 -1 9 -2t11 -1q11 0 17 3.5t11 13.5q35 56 73 150q6 15 6 32q0 19 -8 37l-118 288q-18 43 -47 52q-11 5 -16 9t-5 11q0 9 21 9q23 0 47 -2q20 -2 35 -2q18 0 40 2q26 2 47 2q8 0 14.5 -3t6.5 -8
q0 -13 -26 -22q-12 -3 -17 -11t-5 -23q0 -14 10 -34l74 -183q2 -5 5 -5q2 0 4 5l63 173q3 7 5 18t2 20q0 29 -23 39q-13 6 -20 11t-7 12q0 5 7 8t14 3q11 0 31 -2q22 -2 40 -2q16 0 34 2q16 2 29 2q21 0 21 -9q0 -7 -5 -11t-16 -9q-17 -5 -33 -23t-26 -42l-141 -336
q-37 -92 -91 -218q-10 -23 -29.5 -35t-44.5 -12q-24 0 -42 12.5z" />
    <glyph glyph-name="z" unicode="z" horiz-adv-x="398" 
d="M30 2.5q-6 7.5 -6 13.5q0 7 38 61q108 160 184 282q2 4 2 5q0 5 -12 5l-83 3q-25 0 -44 -19q-7 -7 -36 -48l-15 -21q-3 -3 -10 -3t-12 3.5t-3 9.5q21 80 21 109q0 8 6 14t11 6q6 0 17 -9q7 -6 45 -6l39 1q99 0 194 3q7 0 11 -8t0 -13q-30 -39 -39 -52l-185 -285
q-3 -4 -3 -7q0 -8 14 -8h98q25 0 47 23q12 12 26 32t29 44q5 6 11 6t10.5 -3.5t4.5 -9.5q0 -8 -12 -54.5t-19 -66.5q-3 -15 -17 -15l-46 1q-80 4 -172 4q-18 0 -31.5 -1t-21.5 -2l-30 -2q-5 0 -11 7.5z" />
    <glyph glyph-name="braceleft" unicode="{" horiz-adv-x="375" 
d="M194 -118q-56 31 -56 95q0 40 9 94q8 56 8 86q0 41 -22.5 67.5t-61.5 38.5q-22 7 -22 18q0 7 6.5 12.5t17.5 8.5q40 13 60 36t20 67q0 29 -8 83q-8 56 -8 90q0 64 59 99t141 38q9 0 15 -4.5t6 -11.5q0 -8 -8 -11.5t-22 -5.5q-51 -9 -71.5 -29.5t-20.5 -68.5q0 -36 9 -86
q8 -54 8 -81q0 -46 -41 -82.5t-87 -51.5q-4 -2 2 -4q46 -15 86.5 -53.5t40.5 -83.5q0 -27 -8 -81q-9 -50 -9 -86q0 -51 20.5 -71.5t69.5 -25.5q2 0 10.5 -1.5t13 -4.5t4.5 -9q0 -7 -6 -11.5t-14 -3.5q-85 3 -141 34z" />
    <glyph glyph-name="bar" unicode="|" horiz-adv-x="266" 
d="M99 -283.5q-5 5.5 -5 12.5v938q0 13 12 21.5t26.5 13t20.5 4.5q7 0 12.5 -4.5t5.5 -11.5v-948q0 -17 -21.5 -24t-39.5 -7q-6 0 -11 5.5z" />
    <glyph glyph-name="braceright" unicode="}" horiz-adv-x="375" 
d="M181 -118q56 31 56 95q0 40 -9 94q-8 56 -8 86q0 41 22.5 67.5t61.5 38.5q22 7 22 18q0 7 -6.5 12.5t-17.5 8.5q-40 13 -60 36t-20 67q0 29 8 83q8 56 8 90q0 64 -59 99t-141 38q-9 0 -15 -4.5t-6 -11.5q0 -8 8 -11.5t22 -5.5q51 -9 71.5 -29.5t20.5 -68.5q0 -36 -9 -86
q-8 -54 -8 -81q0 -46 41 -82.5t87 -51.5q4 -2 -2 -4q-46 -15 -86.5 -53.5t-40.5 -83.5q0 -27 8 -81q9 -50 9 -86q0 -51 -20.5 -71.5t-69.5 -25.5q-2 0 -10.5 -1.5t-13 -4.5t-4.5 -9q0 -7 6 -11.5t14 -3.5q85 3 141 34z" />
    <glyph glyph-name="asciitilde" unicode="~" horiz-adv-x="516" 
d="M304 263.5q-20 7.5 -50 23.5q-29 15 -49.5 23t-41.5 8q-25 0 -46.5 -14t-35.5 -28t-15 -14q-6 0 -13 7t-7 12q0 17 18 43.5t47 46.5t61 20q23 0 42.5 -7.5t48.5 -23.5q28 -16 48 -24.5t40 -8.5q23 0 44.5 15.5t37 31t16.5 15.5q7 0 14 -7.5t7 -16.5q0 -20 -19.5 -46
t-48 -44.5t-55.5 -18.5q-23 0 -43 7.5z" />
    <glyph glyph-name="uni00A0" unicode="&#xa0;" horiz-adv-x="213" 
 />
    <glyph glyph-name="exclamdown" unicode="&#xa1;" horiz-adv-x="264" 
d="M115.5 275q-5.5 -10 -7.5 -33q-13 -103 -22 -200.5t-9 -146.5q0 -25 16.5 -44.5t40.5 -19.5q23 0 38.5 19.5t15.5 46.5q0 75 -33 320l-3 25q-5 43 -22 43q-9 0 -14.5 -10zM85 475q-19 -19 -19 -45q0 -27 19 -46t46 -19q26 0 45 19t19 46q0 26 -19 45t-45 19
q-27 0 -46 -19z" />
    <glyph glyph-name="cent" unicode="&#xa2;" horiz-adv-x="426" 
d="M190 -35q-5 5 -4 12l7 75q-44 8 -81 36.5t-59 72.5t-22 96q0 57 26.5 106.5t73.5 82t106 37.5l5 60q1 9 8 14t16 5q7 0 11 -6t3 -13l-4 -59q73 -5 113 -51q5 -6 5 -14q0 -14 -14.5 -27t-29.5 -13q-17 0 -25 12q-24 40 -54 49l-32 -309q14 -2 19 -2q86 0 115 46q5 6 11 6
q5 0 9 -4t4 -9t-3 -11q-26 -51 -65.5 -78t-97.5 -29l-7 -73q-1 -7 -7 -12t-14 -5t-13 5zM234 447h-2q-36 0 -63 -21.5t-41 -56.5t-14 -74q0 -58 23.5 -98t64.5 -57z" />
    <glyph glyph-name="sterling" unicode="&#xa3;" horiz-adv-x="518" 
d="M491.5 164.5q11.5 -17.5 11.5 -42.5q0 -38 -24 -74.5t-64.5 -60t-85.5 -23.5q-42 0 -73 14.5t-77 47.5q-17 13 -39 23.5t-30 10.5q-5 0 -20.5 -18t-26.5 -36q-9 -15 -21.5 -23t-24.5 -8q-11 1 -18.5 10t-7.5 26q0 32 29 58.5t71 33.5q8 1 14 13q11 23 16.5 66.5
t11.5 119.5l-85 -6q-6 0 -11 4t-5 9q0 8 8 16t19 9l76 5l1 11q4 70 29.5 133.5t76.5 104.5t127 41q51 0 79 -25.5t28 -59.5q0 -26 -16.5 -45t-37.5 -19q-15 0 -15 16q0 5 1 11.5t1 15.5q-1 30 -16 51.5t-40 21.5q-46 0 -71 -59.5t-37 -190.5l133 9q6 0 10.5 -4.5t4.5 -8.5
q0 -7 -11.5 -15.5t-23.5 -9.5l-117 -8q-10 -63 -34 -118t-49 -73q-3 -2 -2 -6t5 -4q39 0 71 -9.5t69 -26.5q36 -16 58 -23.5t45 -7.5q25 0 38 11.5t13 30.5q0 15 -10 47q-7 21 -7 30t6 15.5t15 6.5q21 0 32.5 -17.5z" />
    <glyph glyph-name="currency" unicode="&#xa4;" horiz-adv-x="507" 
d="M47 64q-11 11 -11 21q0 5 3 8l57 57q-38 52 -38 119t39 118l-58 58q-3 3 -3 7q0 11 11.5 22t21.5 11q5 0 8 -3l56 -56q55 42 122 42t120 -40l55 55q3 3 8 3q11 0 22 -11t11 -22q0 -5 -4 -9l-54 -55q40 -53 40 -120q0 -69 -40 -120l56 -55q3 -4 3 -8q0 -10 -11.5 -21.5
t-22.5 -11.5q-5 0 -8 3l-54 54q-52 -41 -121 -41q-71 0 -122 42l-56 -55q-3 -3 -9 -3q-10 0 -21 11zM327.5 142q33.5 20 53 53.5t19.5 73.5q0 39 -19.5 72.5t-53 53.5t-72.5 20t-72 -19.5t-52.5 -53.5t-19.5 -73q0 -40 19.5 -73.5t52.5 -53.5t72 -20t72.5 20z" />
    <glyph glyph-name="yen" unicode="&#xa5;" horiz-adv-x="599" 
d="M157 7q0 14 32 20q74 13 74 82l1 83h-121q-6 0 -11 4.5t-5 9.5q1 8 9.5 17t18.5 9h109v21q0 11 -2 25h-119q-6 0 -11 4.5t-5 9.5q1 8 9.5 17t18.5 9h97l-137 213q-50 78 -85 88q-16 6 -23 10.5t-7 11.5q0 12 26 12q17 0 59 -2q46 -2 74 -2q19 0 53 2q30 2 43 2
q12 0 20 -3t8 -9q0 -7 -7.5 -11.5t-23.5 -9.5q-36 -9 -36 -35q0 -16 9 -30l92 -168q10 -18 16 -25t10 -7q5 0 10.5 7t16.5 25l14 23q52 84 72 125q8 18 8 36q0 19 -10.5 32t-27.5 16q-32 10 -32 21q0 6 8 9t21 3l43 -1q13 -1 42 -1q22 0 58 2q30 2 42 2q29 0 29 -13
q0 -7 -7.5 -11.5t-23.5 -8.5q-24 -5 -50.5 -31t-45.5 -55q-44 -68 -115 -187q-14 -22 -17 -30l114 -1q6 0 10 -4t4 -9q0 -8 -11.5 -17t-23.5 -9h-101v-46h121q6 0 10.5 -4t3.5 -9q0 -8 -11.5 -17.5t-23.5 -9.5h-100v-83q0 -35 18 -54.5t57 -27.5q16 -3 24 -7.5t8 -11.5
q0 -13 -29 -13q-18 0 -38 1.5t-30 1.5q-30 3 -60 3q-32 0 -64 -3q-10 0 -31 -1.5t-39 -1.5q-29 0 -29 12z" />
    <glyph glyph-name="brokenbar" unicode="&#xa6;" horiz-adv-x="266" 
d="M99 277q-5 8 -5 16v372q0 13 12 22t26.5 13.5t20.5 4.5q7 0 12.5 -5t5.5 -12v-390q0 -13 -23.5 -21t-37.5 -8q-6 0 -11 8zM99.5 -284.5q-4.5 5.5 -4.5 12.5v419q0 9 12 16.5t27 12.5t20 5q7 0 12.5 -7.5t5.5 -15.5v-417q0 -17 -22 -24t-40 -7q-6 0 -10.5 5.5z" />
    <glyph glyph-name="section" unicode="&#xa7;" horiz-adv-x="415" 
d="M81.5 -138q-19.5 10 -19.5 25q0 11 7 27.5t23 28.5q2 2 7 2q7 0 18 -8q14 -12 35 -19t41 -7q25 0 38 20t13 57q0 30 -25.5 62t-76.5 82l-18 17q-49 48 -73.5 92t-24.5 88q0 61 18 101t53 79q14 52 54.5 91.5t92.5 39.5q22 0 46 -6.5t33 -15.5q13 -11 13 -20
q0 -3 -6.5 -17t-16 -25t-19.5 -11q-7 0 -14 7q-17 16 -36 27t-32 11q-29 0 -44.5 -18t-15.5 -44t30.5 -64.5t79.5 -82.5q58 -51 82 -102t24 -122q0 -91 -49.5 -171.5t-128.5 -121.5q-23 -12 -60 -12q-29 0 -48.5 10zM305 51.5q4 0.5 5 3.5q9 38 9 70q0 47 -22.5 88t-68.5 87
q-104 104 -121 150q-1 3 -4.5 3t-5.5 -3q-12 -36 -12 -70q0 -45 22.5 -86.5t68.5 -87.5q53 -54 83.5 -88.5t40.5 -62.5q1 -4 5 -3.5z" />
    <glyph glyph-name="dieresis" unicode="&#xa8;" horiz-adv-x="319" 
d="M28.5 520.5q-17.5 17.5 -17.5 39.5q0 23 17 40.5t40 17.5t41 -17.5t18 -40.5q0 -22 -18 -39.5t-41 -17.5q-22 0 -39.5 17.5zM211.5 520.5q-17.5 17.5 -17.5 39.5q0 23 17 40.5t40 17.5t41 -17.5t18 -40.5q0 -22 -18 -39.5t-41 -17.5q-22 0 -39.5 17.5z" />
    <glyph glyph-name="copyright" unicode="&#xa9;" horiz-adv-x="671" 
d="M191 62.5q-70 41.5 -111 111.5t-41 153t41 153t111.5 111.5t153.5 41.5t153 -41.5t111 -111.5t41 -153t-41.5 -153t-111.5 -111.5t-153 -41.5t-153 41.5zM475 97q60 36 95 97t35 133q0 70 -35 131t-95 97t-130 36q-71 0 -130.5 -36t-94.5 -96.5t-35 -131.5t34.5 -132.5
t94 -97.5t130.5 -36t131 36zM267 172.5q-41 24.5 -65 65.5t-24 88q0 49 26.5 88.5t72 62t100.5 22.5q20 0 44 -4.5t43 -11.5q9 -3 11.5 -5t3.5 -9q5 -26 3 -64q0 -6 -4 -10.5t-9 -3.5q-9 0 -14 15q-8 24 -25 36q-25 20 -60 20q-50 0 -79 -37.5t-29 -93.5q0 -62 28.5 -104
t82.5 -42q32 0 54 11t34 37q8 15 17 15t9 -15q0 -18 -14 -52q-4 -7 -8 -9.5t-8 -5.5q-39 -18 -99 -18q-50 0 -91 24.5z" />
    <glyph glyph-name="ordfeminine" unicode="&#xaa;" horiz-adv-x="324" 
d="M63 293q-20 20 -20 41t10 34.5t35 22.5l71 26q13 5 16 9t3 16v25q0 17 -8.5 26.5t-24.5 9.5q-12 0 -23.5 -3t-15.5 -9q-2 -3 -2 -10l1 -16q0 -10 -54 -23h-2q-4 0 -5 3.5t1 9.5q6 14 11 22.5t17 18.5q18 16 48.5 29.5t55.5 13.5q30 0 52 -19.5t21 -47.5l-3 -119
q0 -37 20 -37q7 0 11.5 2.5t5.5 3.5q6 4 7 4q4 0 7 -4.5t3 -8.5q0 -6 -12 -18q-22 -22 -46 -22q-23 0 -35 10t-21 24h-4q-15 -15 -33 -24.5t-44 -9.5q-23 0 -43 20zM154.5 320.5q6.5 3.5 15.5 10.5q3 3 4.5 7t1.5 11l1 38q0 7 -3 9t-11 0q-53 -16 -53 -47q0 -16 9 -24t20 -8
q9 0 15.5 3.5zM285 195q5 -4 5 -9l-1 -3q-13 -23 -34 -23h-207q-6 0 -10.5 4.5t-4.5 9.5q0 8 8 16.5t18 8.5h216q5 0 10 -4z" />
    <glyph glyph-name="guillemotleft" unicode="&#xab;" horiz-adv-x="591" 
d="M284 37q-53 50 -102.5 84.5t-104.5 59.5q-9 5 -15 14.5t-6 17.5t5 10q85 51 129.5 83t97.5 82q19 19 31 19q6 0 6 -10q0 -7 -5 -15q-40 -61 -72 -94t-76 -68q-7 -5 -7 -7q0 -1 7 -8q41 -33 74 -68t74 -96q4 -8 4 -11q0 -4 -2.5 -8t-5.5 -4q-13 0 -32 19zM495 37
q-53 50 -102.5 84.5t-104.5 59.5q-9 5 -15 14.5t-6 17.5t5 10q85 51 129.5 83t97.5 82q19 19 31 19q6 0 6 -10q0 -7 -5 -15q-40 -61 -72 -94t-76 -68q-7 -5 -7 -7q0 -1 7 -8q41 -33 74 -68t74 -96q4 -8 4 -11q0 -4 -2.5 -8t-5.5 -4q-13 0 -32 19z" />
    <glyph glyph-name="logicalnot" unicode="&#xac;" horiz-adv-x="608" 
d="M492 47.5q-4 4.5 -4 10.5v245q0 17 -15 17h-413q-6 0 -11 4t-5 9q0 15 6.5 33t20.5 18h466q7 0 11 -5t4 -11v-298q0 -15 -18 -21t-33 -6q-5 0 -9 4.5z" />
    <glyph glyph-name="uni00AD" unicode="&#xad;" horiz-adv-x="289" 
d="M28 175q0 23 4.5 39.5t13.5 17.5q128 19 204 26h2q9 0 9 -9q0 -51 -21 -54q-134 -21 -205 -27q-7 0 -7 7z" />
    <glyph glyph-name="registered" unicode="&#xae;" horiz-adv-x="672" 
d="M192 62.5q-70 41.5 -111 111.5t-41 153t41 153t111.5 111.5t153.5 41.5t153 -41.5t111 -111.5t41 -153t-41.5 -153t-111.5 -111.5t-153 -41.5t-153 41.5zM476 97q60 36 95 97t35 133q0 70 -35 130t-95 95t-130 35q-71 0 -130.5 -35t-94.5 -95t-35 -130q0 -72 34.5 -133
t94 -97t130.5 -36t131 36zM407 215.5q-38 43.5 -57 89.5q-5 14 -30 14q-13 0 -13 -10v-79q0 -15 9 -21t27 -11q17 -6 17 -15q0 -5 -4.5 -8.5t-9.5 -3.5q-16 0 -38 2t-34 2t-30 -2q-20 -2 -36 -2q-4 0 -9 4t-5 8q0 9 17 15q15 4 21 10t6 22v200q0 18 -2 25t-5.5 9t-17.5 6
q-17 4 -17 15q0 5 4.5 8t12.5 2q7 0 15.5 -1t12.5 -2q20 -2 31 -2q14 0 42 2q24 3 51 3q45 0 75 -21t30 -58q0 -29 -17.5 -49.5t-43.5 -30.5q-4 -1 -4 -4t1 -5.5t2 -4.5q12 -30 32.5 -56.5t41.5 -43t35 -16.5h6q7 0 7 -5q0 -13 -15 -21t-36 -8q-34 0 -72 43.5zM380.5 366.5
q20.5 17.5 20.5 43.5q0 25 -17 39.5t-44 14.5q-19 0 -26.5 -6.5t-7.5 -20.5v-69q0 -12 6.5 -15.5t18.5 -3.5q29 0 49.5 17.5z" />
    <glyph glyph-name="macron" unicode="&#xaf;" horiz-adv-x="319" 
d="M31.5 507.5q-4.5 4.5 -4.5 9.5q0 16 8 33t21 17h222q6 0 10.5 -4.5t4.5 -9.5q0 -20 -9.5 -35t-24.5 -15h-216q-7 0 -11.5 4.5z" />
    <glyph glyph-name="degree" unicode="&#xb0;" horiz-adv-x="310" 
d="M90.5 413q-29.5 19 -47.5 49.5t-18 64.5t17.5 63t47.5 46.5t65 17.5t65 -17t47.5 -45.5t17.5 -62.5t-17.5 -65t-47.5 -50.5t-65 -19.5t-64.5 19zM210.5 466q23.5 24 23.5 58t-23 57.5t-56 23.5t-56 -23.5t-23 -57.5t23.5 -58t55.5 -24t55.5 24z" />
    <glyph glyph-name="plusminus" unicode="&#xb1;" horiz-adv-x="593" 
d="M274 127q-4 5 -4 10v208q0 8 -6 8h-205q-6 0 -10.5 3.5t-4.5 8.5q0 12 6.5 26t19.5 14h191q6 0 7.5 2t1.5 8v171q0 13 14.5 22.5t23.5 9.5q6 0 10.5 -5t4.5 -11v-188q0 -6 1.5 -7.5t5.5 -1.5h203q6 0 11 -3.5t5 -8.5q0 -12 -10 -26t-22 -14h-187q-7 0 -7 -7v-198
q0 -12 -14.5 -19t-25.5 -7q-5 0 -9 5zM49 39q-5 4 -5 9q0 12 7 26.5t20 14.5h461q7 0 12.5 -3.5t5.5 -9.5q0 -12 -10.5 -26.5t-23.5 -14.5h-456q-6 0 -11 4z" />
    <glyph glyph-name="uni00B2" unicode="&#xb2;" horiz-adv-x="315" 
d="M197 439q-40 2 -61 2l-71 -1q-14 -1 -31 -1q-4 0 -8 3t-4 6q0 4 7 10l38 37q50 50 80 90.5t30 78.5q0 28 -14.5 43.5t-38.5 15.5q-23 0 -39 -9.5t-34 -30.5q-6 -8 -12 -8q-4 0 -6.5 4.5t-2.5 10.5q0 13 15.5 34t43.5 37t63 16q45 0 71 -26.5t26 -65.5q0 -20 -10.5 -43
t-29.5 -45q-19 -23 -49.5 -52t-47.5 -43l-1 -1q0 -1 4 -2t7 -1h81q19 0 34.5 12.5t30.5 34.5q3 4 6.5 7.5t8.5 3.5t6 -3.5t1 -6.5q-20 -53 -29 -95q-1 -7 -4 -10.5t-6 -3.5q-16 0 -54 2z" />
    <glyph glyph-name="uni00B3" unicode="&#xb3;" horiz-adv-x="288" 
d="M51 444q-20 10 -20 28q0 11 5.5 20t12.5 9t15 -8q18 -15 30 -22t28 -7q24 0 39 20.5t15 53.5q0 22 -17 42t-42 20q-11 0 -23.5 -4.5t-16.5 -4.5q-5 0 -10 2.5t-4 6.5q1 8 13 15t25 12.5t17 7.5q26 12 37.5 26t11.5 35q0 16 -14 27.5t-32 11.5q-41 0 -67 -34q-7 -9 -10 -9
t-7 6t-4 9q0 10 15 27t39.5 29.5t52.5 12.5q35 0 62 -19.5t27 -49.5q0 -24 -14.5 -39.5t-44.5 -28.5q-5 -3 0 -5q32 -7 54 -26t22 -49q0 -36 -21 -64.5t-55.5 -44.5t-73.5 -16q-25 0 -45 10z" />
    <glyph glyph-name="acute" unicode="&#xb4;" horiz-adv-x="213" 
d="M26 466q0 7 4 19q9 25 33.5 72.5t39.5 74.5q11 20 33 20q23 0 38 -5.5t15 -16.5q0 -7 -4.5 -14t-5.5 -8q-22 -30 -56.5 -70t-58.5 -63q-19 -19 -29 -19q-9 0 -9 10z" />
    <glyph glyph-name="uni00B5" unicode="&#xb5;" horiz-adv-x="545" 
d="M113.5 -269.5q-12.5 15.5 -20.5 43.5q-8 29 -11 226q0 108 -2 270q-1 53 -1 122q0 16 7 22t29 6q28 0 49.5 -10t21.5 -23q0 -28 -21 -144q-17 -89 -17 -106q0 -25 15 -48t41 -23q36 0 61.5 26.5t53.5 92.5q13 70 18 217q1 11 5.5 15t17.5 4q32 0 56.5 -14.5t24.5 -28.5
q0 -33 -13.5 -84.5t-39.5 -128.5q0 -30 18.5 -55t49.5 -25q17 0 31 7t26.5 16.5t14.5 9.5q5 0 8.5 -3t3.5 -7q0 -38 -14.5 -66t-37.5 -42.5t-46 -14.5q-25 0 -45 28t-27 72q-1 8 -2 19.5t-1 17.5h-2q-6 -13 -28 -46.5t-48.5 -61.5t-46.5 -28q-24 0 -44.5 13.5t-40.5 34.5
q-15 17 -16 19q-12 15 -15 15q-4 0 -6.5 -8t-2.5 -23l2 -70l2 -87q1 -31 18.5 -52t45.5 -41q10 -7 17.5 -13.5t7.5 -11.5q0 -17 -21 -32t-40 -15q-23 0 -35.5 15.5z" />
    <glyph glyph-name="paragraph" unicode="&#xb6;" horiz-adv-x="607" 
d="M198.5 -264.5q-38.5 32.5 -38.5 83.5q0 34 17 61t44 42.5t55 15.5q33 0 51.5 -15t18.5 -40q0 -23 -13.5 -38t-32.5 -15q-16 0 -32 16q-2 2 -10.5 9.5t-16.5 7.5q-13 0 -24 -14t-11 -38q0 -29 26 -50t64 -21q40 0 69 32t29 99v203q0 10 -3.5 18t-10.5 8q-95 0 -173.5 31
t-125 93t-46.5 149q0 144 99 209.5t284 65.5q39 0 81.5 -2.5t63.5 -4.5q8 -1 12 -8t4 -15q0 -9 -4.5 -20.5t-10.5 -11.5q-4 1 -36 8.5t-73 7.5q-7 0 -13 -6.5t-6 -14.5v-709q0 -79 -41 -124t-104 -45q-54 0 -92.5 32.5z" />
    <glyph glyph-name="periodcentered" unicode="&#xb7;" horiz-adv-x="219" 
d="M65 162q-19 19 -19 45q0 27 19 46t45 19t45 -19t19 -46q0 -26 -19 -45t-45 -19t-45 19z" />
    <glyph glyph-name="cedilla" unicode="&#xb8;" horiz-adv-x="226" 
d="M41 -265q-8 9 -8 34q0 21 14 21q5 0 22 -6t36 -6q17 0 26 11.5t9 31.5q0 25 -17 38.5t-41 13.5q-8 0 -16.5 -4t-11.5 -4q-7 0 -13 5.5t-6 13.5q0 7 8 15l88 109h36l-37 -47q-5 -8 -5 -11q0 -5 11 -11q26 -11 42.5 -31.5t16.5 -46.5q0 -36 -22 -67t-53 -49.5t-53 -18.5
q-18 0 -26 9z" />
    <glyph glyph-name="uni00B9" unicode="&#xb9;" horiz-adv-x="256" 
d="M39 444q-4 4 -4 9q0 6 3.5 10.5t9.5 5.5q27 3 38 9t11 28v161q0 19 -14 31t-33 15q-6 1 -10 4.5t-4 7.5q0 6 3.5 10t8.5 5q61 6 103 39q1 2 4 3t5 1q5 0 7.5 -3.5t1.5 -8.5t-3 -22t-2 -39v-203q0 -15 3 -21.5t12 -9.5t31 -7q12 -3 12 -15q0 -6 -3 -10t-8 -4q-27 0 -53 2
l-29 1l-31 -1q-24 -2 -50 -2q-5 0 -9 4z" />
    <glyph glyph-name="ordmasculine" unicode="&#xba;" horiz-adv-x="315" 
d="M64.5 308q-38.5 35 -38.5 90q0 38 19.5 70.5t53 51.5t73.5 19q36 0 67.5 -17t50.5 -46t19 -62q0 -59 -39.5 -100t-110.5 -41q-56 0 -94.5 35zM214 332q13 27 13 67q0 42 -18 74t-47 32q-30 0 -42.5 -27t-12.5 -66q0 -43 18.5 -75t46.5 -32q29 0 42 27zM290 195q5 -4 5 -9
l-1 -3q-13 -23 -34 -23h-223q-6 0 -10.5 4.5t-4.5 9.5q0 8 8 16.5t18 8.5h232q5 0 10 -4z" />
    <glyph glyph-name="guillemotright" unicode="&#xbb;" horiz-adv-x="591" 
d="M307 37q53 50 102.5 84.5t104.5 59.5q9 5 15 14.5t6 17.5t-5 10q-85 51 -129.5 83t-97.5 82q-19 19 -31 19q-6 0 -6 -10q0 -7 5 -15q40 -61 72 -94t76 -68q7 -5 7 -7q0 -1 -7 -8q-41 -33 -74 -68t-74 -96q-4 -8 -4 -11q0 -4 2.5 -8t5.5 -4q13 0 32 19zM96 37
q53 50 102.5 84.5t104.5 59.5q9 5 15 14.5t6 17.5t-5 10q-85 51 -129.5 83t-97.5 82q-19 19 -31 19q-6 0 -6 -10q0 -7 5 -15q40 -61 72 -94t76 -68q7 -5 7 -7q0 -1 -7 -8q-41 -33 -74 -68t-74 -96q-4 -8 -4 -11q0 -4 2.5 -8t5.5 -4q13 0 32 19z" />
    <glyph glyph-name="onequarter" unicode="&#xbc;" horiz-adv-x="653" 
d="M39 282q-4 4 -4 9q0 6 3.5 10.5t9.5 5.5q27 3 38 9t11 28v161q0 19 -14 31t-33 15q-6 1 -10 4.5t-4 7.5q0 6 3.5 10t8.5 5q61 6 103 39q1 2 4 3t5 1q5 0 7.5 -3.5t1.5 -8.5t-3 -22t-2 -39v-203q0 -15 3 -21.5t12 -9.5t31 -7q12 -3 12 -15q0 -6 -3 -10t-8 -4q-27 0 -53 2
l-29 1l-31 -1q-24 -2 -50 -2q-5 0 -9 4zM559.5 661q10.5 4 25.5 4q6 0 11 -5t5 -10q0 -3 -1 -4l-428 -678q-6 -10 -15.5 -13t-24.5 -3q-7 0 -13 4t-6 9q0 2 1 3l428 678q7 11 17.5 15zM512 0v89q0 3 -3.5 4.5t-5.5 1.5q-25 0 -75 -2q-42 -2 -70 -2q-3 0 -5.5 2t-2.5 4
q0 1 0.5 2l0.5 1q18 23 44 54t40 48l55 65q22 27 61 66q13 13 20 13q4 0 4 -9v-198q0 -7 7 -7h20q20 0 33 1q6 0 6 -7q0 -8 -5.5 -18.5t-9.5 -10.5h-39q-7 0 -9.5 -1.5t-2.5 -5.5v-68q0 -10 -22.5 -20t-30.5 -10q-10 0 -10 8zM505 133q2 0 4.5 1.5t2.5 3.5v105q0 2 -2 2
t-3 -1q-45 -49 -91 -106q-1 -2 -0.5 -3.5t1.5 -1.5h88z" />
    <glyph glyph-name="onehalf" unicode="&#xbd;" horiz-adv-x="718" 
d="M39 282q-4 4 -4 9q0 6 3.5 10.5t9.5 5.5q27 3 38 9t11 28v161q0 19 -14 31t-33 15q-6 1 -10 4.5t-4 7.5q0 6 3.5 10t8.5 5q61 6 103 39q1 2 4 3t5 1q5 0 7.5 -3.5t1.5 -8.5t-3 -22t-2 -39v-203q0 -15 3 -21.5t12 -9.5t31 -7q12 -3 12 -15q0 -6 -3 -10t-8 -4q-27 0 -53 2
l-29 1l-31 -1q-24 -2 -50 -2q-5 0 -9 4zM559.5 661q10.5 4 25.5 4q6 0 11 -5t5 -10q0 -3 -1 -4l-428 -678q-6 -10 -15.5 -13t-24.5 -3q-7 0 -13 4t-6 9q0 2 1 3l428 678q7 11 17.5 15zM600 -15q-40 2 -61 2l-71 -1q-14 -1 -31 -1q-4 0 -8 3t-4 6q0 4 7 10l38 37
q50 50 80 90.5t30 78.5q0 28 -14.5 43.5t-38.5 15.5q-23 0 -39 -9.5t-34 -30.5q-6 -8 -12 -8q-4 0 -6.5 4.5t-2.5 10.5q0 13 15.5 34t43.5 37t63 16q45 0 71 -26.5t26 -65.5q0 -20 -10.5 -43t-29.5 -45q-19 -23 -49.5 -52t-47.5 -43l-1 -1q0 -1 4 -2t7 -1h81q19 0 34.5 12.5
t30.5 34.5q3 4 6.5 7.5t8.5 3.5t6 -3.5t1 -6.5q-20 -53 -29 -95q-1 -7 -4 -10.5t-6 -3.5q-16 0 -54 2z" />
    <glyph glyph-name="threequarters" unicode="&#xbe;" horiz-adv-x="643" 
d="M51 284q-20 10 -20 28q0 11 5.5 20t12.5 9t15 -8q18 -15 30 -22t28 -7q24 0 39 20.5t15 53.5q0 22 -17 42t-42 20q-11 0 -23.5 -4.5t-16.5 -4.5q-5 0 -10 2.5t-4 6.5q1 8 13 15t25 12.5t17 7.5q26 12 37.5 26t11.5 35q0 16 -14 27.5t-32 11.5q-41 0 -67 -34q-7 -9 -10 -9
t-7 6t-4 9q0 10 15 27t39.5 29.5t52.5 12.5q35 0 62 -19.5t27 -49.5q0 -24 -14.5 -39.5t-44.5 -28.5q-5 -3 0 -5q32 -7 54 -26t22 -49q0 -36 -21 -64.5t-55.5 -44.5t-73.5 -16q-25 0 -45 10zM549.5 661q10.5 4 25.5 4q6 0 11 -5t5 -10q0 -3 -1 -4l-428 -678
q-6 -10 -15.5 -13t-24.5 -3q-7 0 -13 4t-6 9q0 2 1 3l428 678q7 11 17.5 15zM503 0v89q0 3 -3.5 4.5t-5.5 1.5q-25 0 -75 -2q-42 -2 -70 -2q-3 0 -5.5 2t-2.5 4q0 1 0.5 2l0.5 1q18 23 44 54t40 48l55 65q22 27 61 66q13 13 20 13q4 0 4 -9v-198q0 -7 7 -7h20q20 0 33 1
q6 0 6 -7q0 -8 -5.5 -18.5t-9.5 -10.5h-39q-7 0 -9.5 -1.5t-2.5 -5.5v-68q0 -10 -22.5 -20t-30.5 -10q-10 0 -10 8zM496 133q2 0 4.5 1.5t2.5 3.5v105q0 2 -2 2t-3 -1q-45 -49 -91 -106q-1 -2 -0.5 -3.5t1.5 -1.5h88z" />
    <glyph glyph-name="questiondown" unicode="&#xbf;" horiz-adv-x="383" 
d="M257 293q8 -9 12 -21q10 -26 14.5 -43t4.5 -44q0 -28 -25.5 -49.5t-81.5 -48.5q-27 -13 -44.5 -32t-17.5 -41q0 -43 24.5 -69.5t67.5 -26.5q14 0 32 5q3 0 11 1.5t16 1.5q18 0 33.5 -22t15.5 -44q0 -15 -16.5 -28t-34.5 -13q-30 0 -62 15t-59 43q-39 40 -63 92.5
t-24 94.5q0 35 12.5 57t31.5 31q39 21 87 51q20 12 26.5 29t8.5 47q1 9 5.5 16t12.5 7q5 0 13 -9zM280 475q19 -19 19 -45q0 -27 -19 -46t-45 -19q-27 0 -46 19t-19 46q0 26 19 45t46 19q26 0 45 -19z" />
    <glyph glyph-name="Agrave" unicode="&#xc0;" horiz-adv-x="702" 
d="M5 -1.5q-8 3.5 -8 10.5q0 14 30 23q29 8 50.5 25t34.5 48q52 119 92.5 221.5t89.5 238.5q14 36 18 66q29 7 48 17q12 6 19.5 18.5t9.5 15.5q6 4 9 -2q3 -5 5 -12t3 -12q60 -191 157 -478l20 -59q16 -46 38 -64t57 -25q15 -3 22.5 -9t7.5 -14q0 -11 -26 -11l-62 2
q-43 3 -85 3l-68 -1q-20 -1 -53 -1q-12 0 -19.5 3.5t-7.5 9.5q0 7 8.5 12.5t21.5 7.5q35 6 50 18t12 32q-1 18 -10.5 54.5t-18.5 71.5q-2 5 -7 23q-2 7 -7 9.5t-17 2.5h-185q-10 0 -17 -17q-10 -30 -23 -74.5t-15 -58.5q-6 -46 59 -62q30 -7 30 -20q0 -12 -27 -12
q-25 0 -40 1l-57 1q-15 0 -35 -1t-30 -2q-28 -3 -54 -3q-12 0 -20 3.5zM408 284q6 0 10 1t4 4q0 1 -2 11l-74 237q-5 16 -8 16q-2 0 -7 -15l-87 -238l-2 -8q0 -5 5 -6.5t15 -1.5h146zM378 693q-16 12 -52 36q-60 41 -91 65q-8 6 -11 10t-4 10q-1 9 23.5 18t39.5 10
q20 0 29 -13q37 -46 88 -121q7 -10 7 -17t-8 -7t-21 9z" />
    <glyph glyph-name="Aacute" unicode="&#xc1;" horiz-adv-x="702" 
d="M5 -1.5q-8 3.5 -8 10.5q0 14 30 23q29 8 50.5 25t34.5 48q52 119 92.5 221.5t89.5 238.5q14 36 18 66q29 7 48 17q12 6 19.5 18.5t9.5 15.5q6 4 9 -2q3 -5 5 -12t3 -12q60 -191 157 -478l20 -59q16 -46 38 -64t57 -25q15 -3 22.5 -9t7.5 -14q0 -11 -26 -11l-62 2
q-43 3 -85 3l-68 -1q-20 -1 -53 -1q-12 0 -19.5 3.5t-7.5 9.5q0 7 8.5 12.5t21.5 7.5q35 6 50 18t12 32q-1 18 -10.5 54.5t-18.5 71.5q-2 5 -7 23q-2 7 -7 9.5t-17 2.5h-185q-10 0 -17 -17q-10 -30 -23 -74.5t-15 -58.5q-6 -46 59 -62q30 -7 30 -20q0 -12 -27 -12
q-25 0 -40 1l-57 1q-15 0 -35 -1t-30 -2q-28 -3 -54 -3q-12 0 -20 3.5zM408 284q6 0 10 1t4 4q0 1 -2 11l-74 237q-5 16 -8 16q-2 0 -7 -15l-87 -238l-2 -8q0 -5 5 -6.5t15 -1.5h146zM321 691q0 7 7 17q51 75 88 121q9 13 29 13q15 -1 39.5 -10t23.5 -18q-1 -6 -4 -10
t-11 -10q-31 -24 -91 -65q-36 -24 -52 -36q-13 -9 -21 -9t-8 7z" />
    <glyph glyph-name="Acircumflex" unicode="&#xc2;" horiz-adv-x="702" 
d="M5 -1.5q-8 3.5 -8 10.5q0 14 30 23q29 8 50.5 25t34.5 48q52 119 92.5 221.5t89.5 238.5q14 36 18 66q29 7 48 17q12 6 19.5 18.5t9.5 15.5q6 4 9 -2q3 -5 5 -12t3 -12q60 -191 157 -478l20 -59q16 -46 38 -64t57 -25q15 -3 22.5 -9t7.5 -14q0 -11 -26 -11l-62 2
q-43 3 -85 3l-68 -1q-20 -1 -53 -1q-12 0 -19.5 3.5t-7.5 9.5q0 7 8.5 12.5t21.5 7.5q35 6 50 18t12 32q-1 18 -10.5 54.5t-18.5 71.5q-2 5 -7 23q-2 7 -7 9.5t-17 2.5h-185q-10 0 -17 -17q-10 -30 -23 -74.5t-15 -58.5q-6 -46 59 -62q30 -7 30 -20q0 -12 -27 -12
q-25 0 -40 1l-57 1q-15 0 -35 -1t-30 -2q-28 -3 -54 -3q-12 0 -20 3.5zM408 284q6 0 10 1t4 4q0 1 -2 11l-74 237q-5 16 -8 16q-2 0 -7 -15l-87 -238l-2 -8q0 -5 5 -6.5t15 -1.5h146zM216 706q0 7 7 13l101 87q17 15 25 19.5t19 4.5t19 -4.5t25 -19.5l101 -87q6 -5 6 -13
q0 -12 -15 -12q-10 0 -56 20.5t-69 33.5q-5 4 -11 4t-11 -4q-23 -13 -69 -33t-56 -20q-16 0 -16 11z" />
    <glyph glyph-name="Atilde" unicode="&#xc3;" horiz-adv-x="702" 
d="M5 -1.5q-8 3.5 -8 10.5q0 14 30 23q29 8 50.5 25t34.5 48q52 119 92.5 221.5t89.5 238.5q14 36 18 66q29 7 48 17q12 6 19.5 18.5t9.5 15.5q6 4 9 -2q3 -5 5 -12t3 -12q60 -191 157 -478l20 -59q16 -46 38 -64t57 -25q15 -3 22.5 -9t7.5 -14q0 -11 -26 -11l-62 2
q-43 3 -85 3l-68 -1q-20 -1 -53 -1q-12 0 -19.5 3.5t-7.5 9.5q0 7 8.5 12.5t21.5 7.5q35 6 50 18t12 32q-1 18 -10.5 54.5t-18.5 71.5q-2 5 -7 23q-2 7 -7 9.5t-17 2.5h-185q-10 0 -17 -17q-10 -30 -23 -74.5t-15 -58.5q-6 -46 59 -62q30 -7 30 -20q0 -12 -27 -12
q-25 0 -40 1l-57 1q-15 0 -35 -1t-30 -2q-28 -3 -54 -3q-12 0 -20 3.5zM408 284q6 0 10 1t4 4q0 1 -2 11l-74 237q-5 16 -8 16q-2 0 -7 -15l-87 -238l-2 -8q0 -5 5 -6.5t15 -1.5h146zM236 697.5q-6 5.5 -6 10.5q0 6 16 29t34.5 42t29.5 19q28 0 74 -4l21 -1q32 -2 50 -2
q20 0 37 19q6 6 12 13t8 7q7 0 14 -5.5t7 -11.5q0 -4 -7 -12t-9 -10q-13 -15 -44 -57q-5 -7 -14.5 -10.5t-15.5 -3.5t-56 4q-82 5 -88 5q-7 0 -16.5 -4.5t-15.5 -10.5q-7 -7 -12.5 -14.5t-7.5 -7.5q-5 0 -11 5.5z" />
    <glyph glyph-name="Adieresis" unicode="&#xc4;" horiz-adv-x="702" 
d="M5 -1.5q-8 3.5 -8 10.5q0 14 30 23q29 8 50.5 25t34.5 48q52 119 92.5 221.5t89.5 238.5q14 36 18 66q29 7 48 17q12 6 19.5 18.5t9.5 15.5q6 4 9 -2q3 -5 5 -12t3 -12q60 -191 157 -478l20 -59q16 -46 38 -64t57 -25q15 -3 22.5 -9t7.5 -14q0 -11 -26 -11l-62 2
q-43 3 -85 3l-68 -1q-20 -1 -53 -1q-12 0 -19.5 3.5t-7.5 9.5q0 7 8.5 12.5t21.5 7.5q35 6 50 18t12 32q-1 18 -10.5 54.5t-18.5 71.5q-2 5 -7 23q-2 7 -7 9.5t-17 2.5h-185q-10 0 -17 -17q-10 -30 -23 -74.5t-15 -58.5q-6 -46 59 -62q30 -7 30 -20q0 -12 -27 -12
q-25 0 -40 1l-57 1q-15 0 -35 -1t-30 -2q-28 -3 -54 -3q-12 0 -20 3.5zM408 284q6 0 10 1t4 4q0 1 -2 11l-74 237q-5 16 -8 16q-2 0 -7 -15l-87 -238l-2 -8q0 -5 5 -6.5t15 -1.5h146zM229 709q-17 17 -17 41q0 25 17 41.5t41 16.5q25 0 42 -16.5t17 -41.5q0 -24 -17 -41
t-42 -17q-24 0 -41 17zM425 709q-17 17 -17 41q0 25 17 41.5t41 16.5q25 0 41.5 -16.5t16.5 -41.5q0 -24 -16.5 -41t-41.5 -17q-24 0 -41 17z" />
    <glyph glyph-name="Aring" unicode="&#xc5;" horiz-adv-x="702" 
d="M5 -1.5q-8 3.5 -8 10.5q0 14 30 23q29 8 50.5 25t34.5 48q52 119 92.5 221.5t89.5 238.5q14 36 18 66q29 7 48 17q12 6 19.5 18.5t9.5 15.5q6 4 9 -2q3 -5 5 -12t3 -12q60 -191 157 -478l20 -59q16 -46 38 -64t57 -25q15 -3 22.5 -9t7.5 -14q0 -11 -26 -11l-62 2
q-43 3 -85 3l-68 -1q-20 -1 -53 -1q-12 0 -19.5 3.5t-7.5 9.5q0 7 8.5 12.5t21.5 7.5q35 6 50 18t12 32q-1 18 -10.5 54.5t-18.5 71.5q-2 5 -7 23q-2 7 -7 9.5t-17 2.5h-185q-10 0 -17 -17q-10 -30 -23 -74.5t-15 -58.5q-6 -46 59 -62q30 -7 30 -20q0 -12 -27 -12
q-25 0 -40 1l-57 1q-15 0 -35 -1t-30 -2q-28 -3 -54 -3q-12 0 -20 3.5zM408 284q6 0 10 1t4 4q0 1 -2 11l-74 237q-5 16 -8 16q-2 0 -7 -15l-87 -238l-2 -8q0 -5 5 -6.5t15 -1.5h146zM432.5 828.5q26.5 -19.5 26.5 -51.5q0 -36 -29.5 -58.5t-69.5 -22.5q-38 0 -64.5 20
t-26.5 53q0 35 30 57t70 22q37 0 63.5 -19.5zM332.5 736q14.5 -15 36.5 -15q19 0 30 15t11 36t-14 35.5t-35 14.5q-19 0 -31 -15t-12 -35q0 -21 14.5 -36z" />
    <glyph glyph-name="AE" unicode="&#xc6;" horiz-adv-x="885" 
d="M-5 8q0 7 7.5 12t22.5 10q26 7 53 31.5t46 56.5l280 477l2 5q0 9 -15 11l-69 13q-13 4 -13 15q0 5 3.5 9t9.5 4l69 -1q60 -2 97 -2q28 0 223 3l86 1q7 0 13 -3t7 -9q13 -67 14 -112q0 -6 -4.5 -9.5t-9.5 -3.5q-10 0 -14 12q-9 25 -15.5 39t-14.5 23q-22 25 -66 25h-111
q-15 0 -28.5 -8t-13.5 -23v-227q0 -10 5.5 -16t14.5 -6l93 1q16 1 27 8.5t21 22.5q5 6 13 18q4 7 8.5 12t9.5 5q4 0 8.5 -5.5t3.5 -12.5q-3 -37 -3 -66q0 -32 3 -76v-4q0 -16 -9 -16q-8 0 -14.5 7.5t-9.5 15.5q-7 25 -20 37.5t-28 12.5q-39 2 -100 2q-10 0 -16.5 -6
t-6.5 -17v-167q0 -30 15.5 -49.5t45.5 -19.5h99q12 0 38 6t36 13q25 20 47 71q3 7 6 10t9 2q5 0 9 -3.5t4 -8.5q0 -41 -21 -117q-4 -16 -17 -16q-61 0 -138 3q-29 1 -87 2t-100 1q-29 0 -58 -3q-9 0 -28.5 -1.5t-37.5 -1.5q-12 0 -19 3t-7 9q0 13 30 19q37 8 53 23t16 47
v162q0 18 -21 18h-141q-10 0 -16 -5.5t-12 -16.5q-25 -42 -74 -143q-8 -18 -8 -30q0 -20 17.5 -31.5t47.5 -18.5q29 -7 29 -20q0 -12 -26 -12t-41 1l-58 1q-16 0 -36.5 -1t-31.5 -2q-29 -3 -55 -3q-28 0 -28 13zM433 323q10 0 13 2.5t3 11.5v232q0 16 -4 16q-3 0 -11 -14
l-129 -232q-4 -7 -3 -11q0 -5 16 -5h115z" />
    <glyph glyph-name="Ccedilla" unicode="&#xc7;" horiz-adv-x="710" 
d="M225 27.5q-84 42.5 -134.5 119t-50.5 174.5q0 94 52 172.5t142 124t198 45.5q51 0 89 -7t91 -22q13 -4 19.5 -11.5t7.5 -20.5q6 -58 9 -116q0 -7 -5.5 -11.5t-11.5 -4.5q-15 0 -19 15q-10 38 -22.5 62t-33.5 40q-49 38 -138 38q-73 0 -130.5 -39t-90 -103t-32.5 -137
q0 -85 31.5 -159t90 -118.5t136.5 -44.5q71 0 118 31t80 95q8 14 21 14q6 0 10 -4t4 -12q0 -14 -7.5 -45t-17.5 -58q-6 -13 -11 -18t-19 -10q-37 -15 -88.5 -23.5t-106.5 -8.5q-97 0 -181 42.5zM296 -266.5q-12 8.5 -12 27.5q0 15 5.5 24t12.5 9q2 0 16 -6.5t46 -6.5
q20 0 31.5 10.5t11.5 28.5q0 24 -12.5 36.5t-35.5 12.5q-6 0 -13.5 -2t-11.5 -2q-12 0 -19.5 6.5t-7.5 12.5q0 8 6 16l84 108h37l-37 -53q-4 -5 -4 -10q0 -7 10 -12q26 -9 45.5 -32t19.5 -54q0 -32 -22.5 -60.5t-55 -45t-58.5 -16.5q-24 0 -36 8.5z" />
    <glyph glyph-name="Egrave" unicode="&#xc8;" horiz-adv-x="568" 
d="M31 7q0 13 29 19q38 8 54 23.5t16 48.5v452q0 34 -14 48.5t-51 22.5q-29 6 -29 20q0 6 7 9.5t19 3.5q35 0 87 -2q50 -2 80 -2q67 0 165 2q33 0 56.5 1.5t26.5 1.5q7 0 13 -3t7 -9l5 -30q11 -57 11 -82q0 -9 -4.5 -13t-9.5 -4q-9 0 -14 12q-1 4 -6.5 19.5t-10.5 25.5
t-10 16q-27 28 -68 28h-112q-14 0 -28 -10.5t-14 -25.5v-204q0 -10 6 -16t15 -6h94q27 0 38.5 12t19.5 41q7 20 19 20q5 0 9 -5t4 -13q-4 -56 -4 -73q0 -37 3 -79v-4q0 -16 -9 -16q-16 0 -24 29q-7 27 -17.5 39.5t-29.5 12.5h-93q-17 0 -24 -5.5t-7 -20.5v-191
q0 -34 14.5 -48t46.5 -14h79q58 0 85 19q16 11 29 29t28 49q8 13 17 12q11 0 11 -16t-10 -52.5t-21 -67.5q-7 -16 -17 -16q-70 0 -150 3q-27 1 -69.5 2t-98.5 1q-28 0 -57 -3q-57 -3 -66 -3q-26 0 -26 12zM308 693q-16 12 -52 36q-60 41 -91 65q-8 6 -11 10t-4 10
q-1 9 23.5 18t39.5 10q20 0 29 -13q37 -46 88 -121q7 -10 7 -17t-8 -7t-21 9z" />
    <glyph glyph-name="Eacute" unicode="&#xc9;" horiz-adv-x="568" 
d="M31 7q0 13 29 19q38 8 54 23.5t16 48.5v452q0 34 -14 48.5t-51 22.5q-29 6 -29 20q0 6 7 9.5t19 3.5q35 0 87 -2q50 -2 80 -2q67 0 165 2q33 0 56.5 1.5t26.5 1.5q7 0 13 -3t7 -9l5 -30q11 -57 11 -82q0 -9 -4.5 -13t-9.5 -4q-9 0 -14 12q-1 4 -6.5 19.5t-10.5 25.5
t-10 16q-27 28 -68 28h-112q-14 0 -28 -10.5t-14 -25.5v-204q0 -10 6 -16t15 -6h94q27 0 38.5 12t19.5 41q7 20 19 20q5 0 9 -5t4 -13q-4 -56 -4 -73q0 -37 3 -79v-4q0 -16 -9 -16q-16 0 -24 29q-7 27 -17.5 39.5t-29.5 12.5h-93q-17 0 -24 -5.5t-7 -20.5v-191
q0 -34 14.5 -48t46.5 -14h79q58 0 85 19q16 11 29 29t28 49q8 13 17 12q11 0 11 -16t-10 -52.5t-21 -67.5q-7 -16 -17 -16q-70 0 -150 3q-27 1 -69.5 2t-98.5 1q-28 0 -57 -3q-57 -3 -66 -3q-26 0 -26 12zM251 691q0 7 7 17q51 75 88 121q9 13 29 13q15 -1 39.5 -10
t23.5 -18q-1 -6 -4 -10t-11 -10q-31 -24 -91 -65q-36 -24 -52 -36q-13 -9 -21 -9t-8 7z" />
    <glyph glyph-name="Ecircumflex" unicode="&#xca;" horiz-adv-x="568" 
d="M31 7q0 13 29 19q38 8 54 23.5t16 48.5v452q0 34 -14 48.5t-51 22.5q-29 6 -29 20q0 6 7 9.5t19 3.5q35 0 87 -2q50 -2 80 -2q67 0 165 2q33 0 56.5 1.5t26.5 1.5q7 0 13 -3t7 -9l5 -30q11 -57 11 -82q0 -9 -4.5 -13t-9.5 -4q-9 0 -14 12q-1 4 -6.5 19.5t-10.5 25.5
t-10 16q-27 28 -68 28h-112q-14 0 -28 -10.5t-14 -25.5v-204q0 -10 6 -16t15 -6h94q27 0 38.5 12t19.5 41q7 20 19 20q5 0 9 -5t4 -13q-4 -56 -4 -73q0 -37 3 -79v-4q0 -16 -9 -16q-16 0 -24 29q-7 27 -17.5 39.5t-29.5 12.5h-93q-17 0 -24 -5.5t-7 -20.5v-191
q0 -34 14.5 -48t46.5 -14h79q58 0 85 19q16 11 29 29t28 49q8 13 17 12q11 0 11 -16t-10 -52.5t-21 -67.5q-7 -16 -17 -16q-70 0 -150 3q-27 1 -69.5 2t-98.5 1q-28 0 -57 -3q-57 -3 -66 -3q-26 0 -26 12zM146 706q0 7 7 13l101 87q17 15 25 19.5t19 4.5t19 -4.5t25 -19.5
l101 -87q6 -5 6 -13q0 -12 -15 -12q-10 0 -56 20.5t-69 33.5q-5 4 -11 4t-11 -4q-23 -13 -69 -33t-56 -20q-16 0 -16 11z" />
    <glyph glyph-name="Edieresis" unicode="&#xcb;" horiz-adv-x="568" 
d="M31 7q0 13 29 19q38 8 54 23.5t16 48.5v452q0 34 -14 48.5t-51 22.5q-29 6 -29 20q0 6 7 9.5t19 3.5q35 0 87 -2q50 -2 80 -2q67 0 165 2q33 0 56.5 1.5t26.5 1.5q7 0 13 -3t7 -9l5 -30q11 -57 11 -82q0 -9 -4.5 -13t-9.5 -4q-9 0 -14 12q-1 4 -6.5 19.5t-10.5 25.5
t-10 16q-27 28 -68 28h-112q-14 0 -28 -10.5t-14 -25.5v-204q0 -10 6 -16t15 -6h94q27 0 38.5 12t19.5 41q7 20 19 20q5 0 9 -5t4 -13q-4 -56 -4 -73q0 -37 3 -79v-4q0 -16 -9 -16q-16 0 -24 29q-7 27 -17.5 39.5t-29.5 12.5h-93q-17 0 -24 -5.5t-7 -20.5v-191
q0 -34 14.5 -48t46.5 -14h79q58 0 85 19q16 11 29 29t28 49q8 13 17 12q11 0 11 -16t-10 -52.5t-21 -67.5q-7 -16 -17 -16q-70 0 -150 3q-27 1 -69.5 2t-98.5 1q-28 0 -57 -3q-57 -3 -66 -3q-26 0 -26 12zM159 709q-17 17 -17 41q0 25 17 41.5t41 16.5q25 0 42 -16.5
t17 -41.5q0 -24 -17 -41t-42 -17q-24 0 -41 17zM355 709q-17 17 -17 41q0 25 17 41.5t41 16.5q25 0 41.5 -16.5t16.5 -41.5q0 -24 -16.5 -41t-41.5 -17q-24 0 -41 17z" />
    <glyph glyph-name="Igrave" unicode="&#xcc;" horiz-adv-x="348" 
d="M18 8q0 7 7 11.5t22 7.5q39 7 56.5 22.5t17.5 48.5v452q0 34 -14 48.5t-52 22.5q-29 6 -29 20q0 13 25 13q27 0 69 -2q38 -2 58 -2l56 1q38 2 66 2q26 0 26 -12q0 -14 -29 -20q-40 -8 -55 -23t-15 -48v-452q0 -32 17.5 -47t57.5 -24q15 -3 22 -7.5t7 -11.5q0 -12 -25 -12
q-36 0 -68 3q-40 2 -60 2q-22 0 -64 -2q-33 -3 -70 -3q-26 0 -26 12zM185 693q-16 12 -52 36q-60 41 -91 65q-8 6 -11 10t-4 10q-1 9 23.5 18t39.5 10q20 0 29 -13q37 -46 88 -121q7 -10 7 -17t-8 -7t-21 9z" />
    <glyph glyph-name="Iacute" unicode="&#xcd;" horiz-adv-x="348" 
d="M18 8q0 7 7 11.5t22 7.5q39 7 56.5 22.5t17.5 48.5v452q0 34 -14 48.5t-52 22.5q-29 6 -29 20q0 13 25 13q27 0 69 -2q38 -2 58 -2l56 1q38 2 66 2q26 0 26 -12q0 -14 -29 -20q-40 -8 -55 -23t-15 -48v-452q0 -32 17.5 -47t57.5 -24q15 -3 22 -7.5t7 -11.5q0 -12 -25 -12
q-36 0 -68 3q-40 2 -60 2q-22 0 -64 -2q-33 -3 -70 -3q-26 0 -26 12zM128 691q0 7 7 17q51 75 88 121q9 13 29 13q15 -1 39.5 -10t23.5 -18q-1 -6 -4 -10t-11 -10q-31 -24 -91 -65q-36 -24 -52 -36q-13 -9 -21 -9t-8 7z" />
    <glyph glyph-name="Icircumflex" unicode="&#xce;" horiz-adv-x="348" 
d="M18 8q0 7 7 11.5t22 7.5q39 7 56.5 22.5t17.5 48.5v452q0 34 -14 48.5t-52 22.5q-29 6 -29 20q0 13 25 13q27 0 69 -2q38 -2 58 -2l56 1q38 2 66 2q26 0 26 -12q0 -14 -29 -20q-40 -8 -55 -23t-15 -48v-452q0 -32 17.5 -47t57.5 -24q15 -3 22 -7.5t7 -11.5q0 -12 -25 -12
q-36 0 -68 3q-40 2 -60 2q-22 0 -64 -2q-33 -3 -70 -3q-26 0 -26 12zM23 706q0 7 7 13l101 87q17 15 25 19.5t19 4.5t19 -4.5t25 -19.5l101 -87q6 -5 6 -13q0 -12 -15 -12q-10 0 -56 20.5t-69 33.5q-5 4 -11 4t-11 -4q-23 -13 -69 -33t-56 -20q-16 0 -16 11z" />
    <glyph glyph-name="Idieresis" unicode="&#xcf;" horiz-adv-x="348" 
d="M18 8q0 7 7 11.5t22 7.5q39 7 56.5 22.5t17.5 48.5v452q0 34 -14 48.5t-52 22.5q-29 6 -29 20q0 13 25 13q27 0 69 -2q38 -2 58 -2l56 1q38 2 66 2q26 0 26 -12q0 -14 -29 -20q-40 -8 -55 -23t-15 -48v-452q0 -32 17.5 -47t57.5 -24q15 -3 22 -7.5t7 -11.5q0 -12 -25 -12
q-36 0 -68 3q-40 2 -60 2q-22 0 -64 -2q-33 -3 -70 -3q-26 0 -26 12zM36 709q-17 17 -17 41q0 25 17 41.5t41 16.5q25 0 42 -16.5t17 -41.5q0 -24 -17 -41t-42 -17q-24 0 -41 17zM232 709q-17 17 -17 41q0 25 17 41.5t41 16.5q25 0 41.5 -16.5t16.5 -41.5q0 -24 -16.5 -41
t-41.5 -17q-24 0 -41 17z" />
    <glyph glyph-name="Eth" unicode="&#xd0;" horiz-adv-x="758" 
d="M558.5 617.5q83.5 -41.5 125.5 -113.5t42 -164q0 -93 -45.5 -172.5t-126 -127t-179.5 -47.5q-28 0 -78 3q-86 4 -128 4q-18 0 -52 -2q-38 -2 -66 -2q-26 0 -26 13q0 8 6.5 11.5t22.5 6.5q38 7 52.5 22t14.5 49v215h-62q-8 0 -12.5 7.5t-4.5 14.5q0 9 7.5 15.5t18.5 6.5
h53v193q0 34 -14 48.5t-53 22.5q-16 3 -22.5 7t-6.5 12q0 7 7 10.5t19 3.5q25 0 63 -2l59 -1q23 0 99 4q68 4 84 4q119 0 202.5 -41.5zM490.5 70q55.5 36 85.5 100.5t30 148.5q0 91 -35 159.5t-94 105t-128 36.5q-48 0 -71.5 -2.5t-37 -14t-13.5 -36.5v-210h146q6 0 11 -4
t5 -10l-1 -3q-12 -27 -34 -27h-127v-188q0 -52 36 -71.5t99 -19.5q73 0 128.5 36z" />
    <glyph glyph-name="Ntilde" unicode="&#xd1;" horiz-adv-x="798" 
d="M631 -1q-27 17 -50 49l-108 124q-246 283 -267 306q-11 15 -18 15q-4 0 -6 -6.5t-2 -14.5q-2 -192 -2 -365q0 -66 70 -80q31 -7 31 -19t-28 -12q-30 0 -60 2q-24 2 -40 2q-20 0 -46 -2t-45 -2q-28 0 -28 12q0 7 7 11t24 9q50 14 55 81q7 68 13 177t6 221q0 49 -24 73
t-72 40q-9 3 -19.5 9t-10.5 14t7.5 11.5t16.5 3.5q42 0 75 -3q54 -2 94 -2q7 0 11.5 -3.5t10.5 -11.5l117 -140q64 -76 140 -166.5t129 -152.5q15 -18 22 -18q9 0 10 19v226v155q-1 21 -20 36.5t-44 21.5q-16 3 -27 8t-11 12q0 6 11 9t24 3h71l49 1q32 2 64 2q27 0 27 -13
q0 -14 -31 -20q-36 -7 -49 -18.5t-14 -37.5q-5 -270 -5 -441q0 -28 5 -83l2 -27q0 -32 -24 -32q-14 0 -41 17zM281 697.5q-6 5.5 -6 10.5q0 6 16 29t34.5 42t29.5 19q28 0 74 -4l21 -1q32 -2 50 -2q20 0 37 19q6 6 12 13t8 7q7 0 14 -5.5t7 -11.5q0 -4 -7 -12t-9 -10
q-13 -15 -44 -57q-5 -7 -14.5 -10.5t-15.5 -3.5t-56 4q-82 5 -88 5q-7 0 -16.5 -4.5t-15.5 -10.5q-7 -7 -12.5 -14.5t-7.5 -7.5q-5 0 -11 5.5z" />
    <glyph glyph-name="Ograve" unicode="&#xd2;" horiz-adv-x="762" 
d="M209.5 27.5q-77.5 41.5 -124 116.5t-46.5 171q0 92 40.5 172t119 128.5t186.5 48.5q90 0 167.5 -41.5t124 -116.5t46.5 -171q0 -92 -40.5 -172t-119 -128.5t-187.5 -48.5q-89 0 -166.5 41.5zM548 97q54 69 54 188q0 92 -26.5 168t-79 121.5t-128.5 45.5
q-101 0 -154.5 -68.5t-53.5 -185.5q0 -92 26 -169t78.5 -123t127.5 -46q102 0 156 69zM401 693q-16 12 -52 36q-60 41 -91 65q-8 6 -11 10t-4 10q-1 9 23.5 18t39.5 10q20 0 29 -13q37 -46 88 -121q7 -10 7 -17t-8 -7t-21 9z" />
    <glyph glyph-name="Oacute" unicode="&#xd3;" horiz-adv-x="762" 
d="M209.5 27.5q-77.5 41.5 -124 116.5t-46.5 171q0 92 40.5 172t119 128.5t186.5 48.5q90 0 167.5 -41.5t124 -116.5t46.5 -171q0 -92 -40.5 -172t-119 -128.5t-187.5 -48.5q-89 0 -166.5 41.5zM548 97q54 69 54 188q0 92 -26.5 168t-79 121.5t-128.5 45.5
q-101 0 -154.5 -68.5t-53.5 -185.5q0 -92 26 -169t78.5 -123t127.5 -46q102 0 156 69zM344 691q0 7 7 17q51 75 88 121q9 13 29 13q15 -1 39.5 -10t23.5 -18q-1 -6 -4 -10t-11 -10q-31 -24 -91 -65q-36 -24 -52 -36q-13 -9 -21 -9t-8 7z" />
    <glyph glyph-name="Ocircumflex" unicode="&#xd4;" horiz-adv-x="762" 
d="M209.5 27.5q-77.5 41.5 -124 116.5t-46.5 171q0 92 40.5 172t119 128.5t186.5 48.5q90 0 167.5 -41.5t124 -116.5t46.5 -171q0 -92 -40.5 -172t-119 -128.5t-187.5 -48.5q-89 0 -166.5 41.5zM548 97q54 69 54 188q0 92 -26.5 168t-79 121.5t-128.5 45.5
q-101 0 -154.5 -68.5t-53.5 -185.5q0 -92 26 -169t78.5 -123t127.5 -46q102 0 156 69zM239 706q0 7 7 13l101 87q17 15 25 19.5t19 4.5t19 -4.5t25 -19.5l101 -87q6 -5 6 -13q0 -12 -15 -12q-10 0 -56 20.5t-69 33.5q-5 4 -11 4t-11 -4q-23 -13 -69 -33t-56 -20
q-16 0 -16 11z" />
    <glyph glyph-name="Otilde" unicode="&#xd5;" horiz-adv-x="762" 
d="M209.5 27.5q-77.5 41.5 -124 116.5t-46.5 171q0 92 40.5 172t119 128.5t186.5 48.5q90 0 167.5 -41.5t124 -116.5t46.5 -171q0 -92 -40.5 -172t-119 -128.5t-187.5 -48.5q-89 0 -166.5 41.5zM548 97q54 69 54 188q0 92 -26.5 168t-79 121.5t-128.5 45.5
q-101 0 -154.5 -68.5t-53.5 -185.5q0 -92 26 -169t78.5 -123t127.5 -46q102 0 156 69zM259 697.5q-6 5.5 -6 10.5q0 6 16 29t34.5 42t29.5 19q28 0 74 -4l21 -1q32 -2 50 -2q20 0 37 19q6 6 12 13t8 7q7 0 14 -5.5t7 -11.5q0 -4 -7 -12t-9 -10q-13 -15 -44 -57
q-5 -7 -14.5 -10.5t-15.5 -3.5t-56 4q-82 5 -88 5q-7 0 -16.5 -4.5t-15.5 -10.5q-7 -7 -12.5 -14.5t-7.5 -7.5q-5 0 -11 5.5z" />
    <glyph glyph-name="Odieresis" unicode="&#xd6;" horiz-adv-x="762" 
d="M209.5 27.5q-77.5 41.5 -124 116.5t-46.5 171q0 92 40.5 172t119 128.5t186.5 48.5q90 0 167.5 -41.5t124 -116.5t46.5 -171q0 -92 -40.5 -172t-119 -128.5t-187.5 -48.5q-89 0 -166.5 41.5zM548 97q54 69 54 188q0 92 -26.5 168t-79 121.5t-128.5 45.5
q-101 0 -154.5 -68.5t-53.5 -185.5q0 -92 26 -169t78.5 -123t127.5 -46q102 0 156 69zM252 709q-17 17 -17 41q0 25 17 41.5t41 16.5q25 0 42 -16.5t17 -41.5q0 -24 -17 -41t-42 -17q-24 0 -41 17zM448 709q-17 17 -17 41q0 25 17 41.5t41 16.5q25 0 41.5 -16.5t16.5 -41.5
q0 -24 -16.5 -41t-41.5 -17q-24 0 -41 17z" />
    <glyph glyph-name="multiply" unicode="&#xd7;" horiz-adv-x="579" 
d="M436 62l-142 143q-5 5 -10 -1l-141 -140q-3 -4 -8.5 -5t-9.5 1q-6 4 -14.5 17t-8.5 24q0 8 6 14l132 131q3 3 3 6t-4 7l-130 130q-5 5 -5 14q0 10 6 22.5t11 18.5q3 3 9 3q7 0 11 -4l142 -142q4 -3 6 -3t4 2l144 143q5 5 11 5t9 -4q2 -3 10 -16.5t8 -24.5q0 -8 -7 -14
l-132 -132q-4 -4 0 -9l136 -135q5 -5 5 -14q0 -13 -9.5 -27.5t-18.5 -14.5q-8 0 -13 5z" />
    <glyph glyph-name="Oslash" unicode="&#xd8;" horiz-adv-x="769" 
d="M648 545q36 -42 55.5 -95.5t19.5 -114.5q0 -92 -40.5 -172t-119 -128.5t-187.5 -48.5q-60 0 -117 20t-102 56l-73 -72q-6 -4 -12 -4q-13 0 -23.5 8t-10.5 17q0 13 12 25l67 65q-37 43 -57.5 97.5t-20.5 116.5q0 92 40.5 172t119 128.5t186.5 48.5q63 0 122 -21.5
t106 -61.5l78 76q5 6 13 6q5 0 10 -3t6 -7q4 -12 4 -19q0 -15 -9 -23zM194 176l352 340q-30 49 -75 76.5t-103 27.5q-101 0 -154.5 -68.5t-53.5 -185.5q0 -109 34 -190zM570 468l-349 -343q30 -46 73 -71.5t98 -25.5q102 0 156 69t54 188q0 102 -32 183z" />
    <glyph glyph-name="Ugrave" unicode="&#xd9;" horiz-adv-x="740" 
d="M168.5 55.5q-70.5 69.5 -70.5 189.5v299q0 31 -13 50t-34 25q-32 9 -32 22t28 13q18 0 52 -2q38 -2 56 -2t56 2l44 1q28 0 28 -13q0 -6 -6.5 -10t-17 -7.5t-14.5 -5.5q-15 -5 -27.5 -25t-12.5 -49v-274q0 -109 53 -164.5t140 -55.5q96 0 144 64t48 182q0 135 -2 206
q-2 50 -12.5 79t-33.5 38q-2 1 -12.5 4.5t-16.5 8t-6 9.5q0 12 29 12l46 -1q12 -1 37 -1q18 0 46 2q26 2 38 2q28 0 28 -13t-31 -20q-28 -6 -40 -26t-14 -54q-6 -116 -8 -242l-1 -45q-1 -78 -36.5 -139t-95.5 -95t-133 -34q-133 0 -203.5 69.5zM406 693q-16 12 -52 36
q-60 41 -91 65q-8 6 -11 10t-4 10q-1 9 23.5 18t39.5 10q20 0 29 -13q37 -46 88 -121q7 -10 7 -17t-8 -7t-21 9z" />
    <glyph glyph-name="Uacute" unicode="&#xda;" horiz-adv-x="740" 
d="M168.5 55.5q-70.5 69.5 -70.5 189.5v299q0 31 -13 50t-34 25q-32 9 -32 22t28 13q18 0 52 -2q38 -2 56 -2t56 2l44 1q28 0 28 -13q0 -6 -6.5 -10t-17 -7.5t-14.5 -5.5q-15 -5 -27.5 -25t-12.5 -49v-274q0 -109 53 -164.5t140 -55.5q96 0 144 64t48 182q0 135 -2 206
q-2 50 -12.5 79t-33.5 38q-2 1 -12.5 4.5t-16.5 8t-6 9.5q0 12 29 12l46 -1q12 -1 37 -1q18 0 46 2q26 2 38 2q28 0 28 -13t-31 -20q-28 -6 -40 -26t-14 -54q-6 -116 -8 -242l-1 -45q-1 -78 -36.5 -139t-95.5 -95t-133 -34q-133 0 -203.5 69.5zM349 691q0 7 7 17
q51 75 88 121q9 13 29 13q15 -1 39.5 -10t23.5 -18q-1 -6 -4 -10t-11 -10q-31 -24 -91 -65q-36 -24 -52 -36q-13 -9 -21 -9t-8 7z" />
    <glyph glyph-name="Ucircumflex" unicode="&#xdb;" horiz-adv-x="740" 
d="M168.5 55.5q-70.5 69.5 -70.5 189.5v299q0 31 -13 50t-34 25q-32 9 -32 22t28 13q18 0 52 -2q38 -2 56 -2t56 2l44 1q28 0 28 -13q0 -6 -6.5 -10t-17 -7.5t-14.5 -5.5q-15 -5 -27.5 -25t-12.5 -49v-274q0 -109 53 -164.5t140 -55.5q96 0 144 64t48 182q0 135 -2 206
q-2 50 -12.5 79t-33.5 38q-2 1 -12.5 4.5t-16.5 8t-6 9.5q0 12 29 12l46 -1q12 -1 37 -1q18 0 46 2q26 2 38 2q28 0 28 -13t-31 -20q-28 -6 -40 -26t-14 -54q-6 -116 -8 -242l-1 -45q-1 -78 -36.5 -139t-95.5 -95t-133 -34q-133 0 -203.5 69.5zM244 706q0 7 7 13l101 87
q17 15 25 19.5t19 4.5t19 -4.5t25 -19.5l101 -87q6 -5 6 -13q0 -12 -15 -12q-10 0 -56 20.5t-69 33.5q-5 4 -11 4t-11 -4q-23 -13 -69 -33t-56 -20q-16 0 -16 11z" />
    <glyph glyph-name="Udieresis" unicode="&#xdc;" horiz-adv-x="740" 
d="M168.5 55.5q-70.5 69.5 -70.5 189.5v299q0 31 -13 50t-34 25q-32 9 -32 22t28 13q18 0 52 -2q38 -2 56 -2t56 2l44 1q28 0 28 -13q0 -6 -6.5 -10t-17 -7.5t-14.5 -5.5q-15 -5 -27.5 -25t-12.5 -49v-274q0 -109 53 -164.5t140 -55.5q96 0 144 64t48 182q0 135 -2 206
q-2 50 -12.5 79t-33.5 38q-2 1 -12.5 4.5t-16.5 8t-6 9.5q0 12 29 12l46 -1q12 -1 37 -1q18 0 46 2q26 2 38 2q28 0 28 -13t-31 -20q-28 -6 -40 -26t-14 -54q-6 -116 -8 -242l-1 -45q-1 -78 -36.5 -139t-95.5 -95t-133 -34q-133 0 -203.5 69.5zM257 709q-17 17 -17 41
q0 25 17 41.5t41 16.5q25 0 42 -16.5t17 -41.5q0 -24 -17 -41t-42 -17q-24 0 -41 17zM453 709q-17 17 -17 41q0 25 17 41.5t41 16.5q25 0 41.5 -16.5t16.5 -41.5q0 -24 -16.5 -41t-41.5 -17q-24 0 -41 17z" />
    <glyph glyph-name="Yacute" unicode="&#xdd;" horiz-adv-x="605" 
d="M157 7q0 14 32 20q74 13 74 82v144q0 36 -27 84l-121 194q-21 33 -41.5 57.5t-43.5 30.5q-16 6 -23 10.5t-7 11.5q0 12 26 12q17 0 59 -2q46 -2 74 -2q19 0 53 2q30 2 43 2q12 0 20 -3t8 -9q0 -13 -31 -21q-21 -5 -30 -11t-9 -18q0 -13 12 -36l96 -173q16 -30 25 -30
q5 0 10.5 6t16.5 24q31 51 86 153q16 28 16 47q0 18 -13.5 26.5t-32.5 10.5q-11 2 -21.5 8t-10.5 13q0 6 8 9t21 3l43 -1q13 -1 41 -1q23 0 61 2q30 2 42 2q30 0 30 -13q0 -7 -10.5 -11.5t-34.5 -11.5q-26 -7 -44.5 -25.5t-43.5 -57.5l-22 -34l-93 -150q-16 -28 -20.5 -45
t-4.5 -47v-150q0 -35 18 -54.5t57 -27.5q16 -3 24 -7.5t8 -11.5q0 -13 -29 -13q-18 0 -38 1.5t-30 1.5q-30 3 -60 3q-32 0 -64 -3q-10 0 -31 -1.5t-39 -1.5q-29 0 -29 12zM292 691q0 7 7 17q51 75 88 121q9 13 29 13q15 -1 39.5 -10t23.5 -18q-1 -6 -4 -10t-11 -10
q-31 -24 -91 -65q-36 -24 -52 -36q-13 -9 -21 -9t-8 7z" />
    <glyph glyph-name="Thorn" unicode="&#xde;" horiz-adv-x="570" 
d="M20 8q0 7 7 11.5t22 7.5q40 7 57.5 22.5t17.5 48.5v452q0 32 -11.5 48t-47.5 23q-29 6 -29 20q0 13 25 13q30 0 66 -2q34 -2 52 -2l60 1q42 2 69 2q25 0 25 -12q0 -14 -29 -20q-40 -9 -56.5 -23t-17.5 -46v-14q0 -6 1 -11t5 -5l12.5 2.5t10.5 2.5q29 7 74 7
q57 0 103 -22.5t73 -66t27 -104.5q0 -70 -35.5 -117.5t-95 -71t-131.5 -23.5q-8 0 -18.5 1.5t-17.5 1.5q-8 0 -8 -9v-26q0 -30 18 -45.5t57 -24.5q15 -3 22 -7.5t7 -11.5q0 -12 -25 -12q-37 0 -69 3q-38 2 -59 2q-23 0 -65 -2q-33 -3 -70 -3q-26 0 -26 12zM387.5 207.5
q38.5 46.5 38.5 127.5q0 73 -30.5 119.5t-88.5 46.5q-46 0 -61.5 -15t-15.5 -61v-203q0 -32 13.5 -46.5t33.5 -14.5q72 0 110.5 46.5z" />
    <glyph glyph-name="germandbls" unicode="&#xdf;" horiz-adv-x="531" 
d="M283.5 -1q-22.5 14 -22.5 39q0 21 7 36.5t20 15.5t33 -18q17 -17 31 -23t36 -6q21 0 37 13t16 38t-18 46.5t-71 70.5q-42 39 -59 56.5t-25 33t-8 34.5q0 23 14 40t45 43q36 33 37 34q20 20 32 46t12 54q0 50 -28 81.5t-83 31.5q-111 0 -111 -191v-403q0 -19 12.5 -29
t33.5 -15q21 -8 21 -19t-21 -11q-27 0 -48 3q-24 2 -42 2q-16 0 -42 -2q-19 -3 -47 -3q-22 0 -22 11q0 7 6 11t17 8q19 6 29.5 15t10.5 28v282q-31 0 -52 2q-4 1 -7.5 8t-3.5 13t5 8q17 5 31 11.5t27 13.5q2 105 39 172t91.5 96.5t111.5 29.5q39 0 71 -17.5t50 -46.5t18 -62
q0 -36 -15.5 -63.5t-53.5 -62.5q-26 -24 -36.5 -40.5t-10.5 -45.5q0 -17 11 -31t44 -46l21 -19q43 -41 60 -68t17 -58q0 -42 -25 -79t-63 -59.5t-74 -22.5t-58.5 14z" />
    <glyph glyph-name="agrave" unicode="&#xe0;" horiz-adv-x="413" 
d="M80.5 -0.5q-20.5 13.5 -33.5 34t-13 40.5q0 32 18 52t58 37l97 41q20 8 24 14t5 27l2 61q1 28 -13.5 45.5t-40.5 17.5q-14 0 -28.5 -5t-23.5 -13q-8 -8 -8 -26l1 -22q0 -8 -28.5 -22.5t-45.5 -14.5q-6 0 -9.5 4t-3.5 9q0 33 42 69q35 31 80 51.5t77 20.5q42 0 68 -28.5
t25 -73.5l-5 -226q-1 -22 9 -36t25 -14q24 0 36 12q4 4 7 4q5 0 8.5 -3.5t3.5 -7.5q0 -11 -14 -25q-17 -17 -36.5 -26.5t-37.5 -9.5q-51 0 -80 54h-3q-33 -29 -62 -41.5t-60 -12.5q-20 0 -40.5 13.5zM222 61q10 10 11 36l2 57v5q0 14 -9 14q-6 0 -17 -5q-44 -17 -62.5 -35
t-18.5 -41q0 -25 13.5 -38.5t31.5 -13.5q28 0 49 21zM208 475q-24 23 -58.5 63t-56.5 70q-1 1 -5.5 8t-4.5 14q0 11 15 16.5t38 5.5q22 0 33 -20q15 -27 39.5 -74.5t33.5 -72.5q4 -12 4 -19q0 -10 -9 -10q-10 0 -29 19z" />
    <glyph glyph-name="aacute" unicode="&#xe1;" horiz-adv-x="413" 
d="M80.5 -0.5q-20.5 13.5 -33.5 34t-13 40.5q0 32 18 52t58 37l97 41q20 8 24 14t5 27l2 61q1 28 -13.5 45.5t-40.5 17.5q-14 0 -28.5 -5t-23.5 -13q-8 -8 -8 -26l1 -22q0 -8 -28.5 -22.5t-45.5 -14.5q-6 0 -9.5 4t-3.5 9q0 33 42 69q35 31 80 51.5t77 20.5q42 0 68 -28.5
t25 -73.5l-5 -226q-1 -22 9 -36t25 -14q24 0 36 12q4 4 7 4q5 0 8.5 -3.5t3.5 -7.5q0 -11 -14 -25q-17 -17 -36.5 -26.5t-37.5 -9.5q-51 0 -80 54h-3q-33 -29 -62 -41.5t-60 -12.5q-20 0 -40.5 13.5zM222 61q10 10 11 36l2 57v5q0 14 -9 14q-6 0 -17 -5q-44 -17 -62.5 -35
t-18.5 -41q0 -25 13.5 -38.5t31.5 -13.5q28 0 49 21zM175 466q0 7 4 19q9 25 33.5 72.5t39.5 74.5q11 20 33 20q23 0 38 -5.5t15 -16.5q0 -7 -4.5 -14t-5.5 -8q-22 -30 -56.5 -70t-58.5 -63q-19 -19 -29 -19q-9 0 -9 10z" />
    <glyph glyph-name="acircumflex" unicode="&#xe2;" horiz-adv-x="413" 
d="M80.5 -0.5q-20.5 13.5 -33.5 34t-13 40.5q0 32 18 52t58 37l97 41q20 8 24 14t5 27l2 61q1 28 -13.5 45.5t-40.5 17.5q-14 0 -28.5 -5t-23.5 -13q-8 -8 -8 -26l1 -22q0 -8 -28.5 -22.5t-45.5 -14.5q-6 0 -9.5 4t-3.5 9q0 33 42 69q35 31 80 51.5t77 20.5q42 0 68 -28.5
t25 -73.5l-5 -226q-1 -22 9 -36t25 -14q24 0 36 12q4 4 7 4q5 0 8.5 -3.5t3.5 -7.5q0 -11 -14 -25q-17 -17 -36.5 -26.5t-37.5 -9.5q-51 0 -80 54h-3q-33 -29 -62 -41.5t-60 -12.5q-20 0 -40.5 13.5zM222 61q10 10 11 36l2 57v5q0 14 -9 14q-6 0 -17 -5q-44 -17 -62.5 -35
t-18.5 -41q0 -25 13.5 -38.5t31.5 -13.5q28 0 49 21zM235 631q77 -128 85 -154q2 -8 2 -10q0 -12 -11 -12q-10 0 -33 25q-8 9 -16.5 20t-17.5 22l-30 37q-3 4 -4.5 4t-4.5 -4l-63 -79q-9 -9 -18.5 -17t-15.5 -8q-11 0 -11 10l2 12q5 15 35 68.5t50 85.5q14 25 25 25
q12 0 26 -25z" />
    <glyph glyph-name="atilde" unicode="&#xe3;" horiz-adv-x="413" 
d="M80.5 -0.5q-20.5 13.5 -33.5 34t-13 40.5q0 32 18 52t58 37l97 41q20 8 24 14t5 27l2 61q1 28 -13.5 45.5t-40.5 17.5q-14 0 -28.5 -5t-23.5 -13q-8 -8 -8 -26l1 -22q0 -8 -28.5 -22.5t-45.5 -14.5q-6 0 -9.5 4t-3.5 9q0 33 42 69q35 31 80 51.5t77 20.5q42 0 68 -28.5
t25 -73.5l-5 -226q-1 -22 9 -36t25 -14q24 0 36 12q4 4 7 4q5 0 8.5 -3.5t3.5 -7.5q0 -11 -14 -25q-17 -17 -36.5 -26.5t-37.5 -9.5q-51 0 -80 54h-3q-33 -29 -62 -41.5t-60 -12.5q-20 0 -40.5 13.5zM222 61q10 10 11 36l2 57v5q0 14 -9 14q-6 0 -17 -5q-44 -17 -62.5 -35
t-18.5 -41q0 -25 13.5 -38.5t31.5 -13.5q28 0 49 21zM77.5 465.5q-5.5 4.5 -5.5 11.5q0 6 19.5 31.5t41.5 47t33 21.5q9 0 29 -2l28 -3q50 -4 60 -4q21 0 38 19l16 18t10 9q7 0 14 -5.5t7 -12.5q0 -3 -9 -13t-13 -15q-5 -6 -30 -38l-16 -21q-5 -7 -14.5 -10.5t-15.5 -3.5
q-15 0 -45 3q-67 5 -78 5q-16 0 -33 -19q-3 -3 -12 -13t-12 -10q-7 0 -12.5 4.5z" />
    <glyph glyph-name="adieresis" unicode="&#xe4;" horiz-adv-x="413" 
d="M80.5 -0.5q-20.5 13.5 -33.5 34t-13 40.5q0 32 18 52t58 37l97 41q20 8 24 14t5 27l2 61q1 28 -13.5 45.5t-40.5 17.5q-14 0 -28.5 -5t-23.5 -13q-8 -8 -8 -26l1 -22q0 -8 -28.5 -22.5t-45.5 -14.5q-6 0 -9.5 4t-3.5 9q0 33 42 69q35 31 80 51.5t77 20.5q42 0 68 -28.5
t25 -73.5l-5 -226q-1 -22 9 -36t25 -14q24 0 36 12q4 4 7 4q5 0 8.5 -3.5t3.5 -7.5q0 -11 -14 -25q-17 -17 -36.5 -26.5t-37.5 -9.5q-51 0 -80 54h-3q-33 -29 -62 -41.5t-60 -12.5q-20 0 -40.5 13.5zM222 61q10 10 11 36l2 57v5q0 14 -9 14q-6 0 -17 -5q-44 -17 -62.5 -35
t-18.5 -41q0 -25 13.5 -38.5t31.5 -13.5q28 0 49 21zM77.5 520.5q-17.5 17.5 -17.5 39.5q0 23 17 40.5t40 17.5t41 -17.5t18 -40.5q0 -22 -18 -39.5t-41 -17.5q-22 0 -39.5 17.5zM260.5 520.5q-17.5 17.5 -17.5 39.5q0 23 17 40.5t40 17.5t41 -17.5t18 -40.5
q0 -22 -18 -39.5t-41 -17.5q-22 0 -39.5 17.5z" />
    <glyph glyph-name="aring" unicode="&#xe5;" horiz-adv-x="413" 
d="M80.5 -0.5q-20.5 13.5 -33.5 34t-13 40.5q0 32 18 52t58 37l97 41q20 8 24 14t5 27l2 61q1 28 -13.5 45.5t-40.5 17.5q-14 0 -28.5 -5t-23.5 -13q-8 -8 -8 -26l1 -22q0 -8 -28.5 -22.5t-45.5 -14.5q-6 0 -9.5 4t-3.5 9q0 33 42 69q35 31 80 51.5t77 20.5q42 0 68 -28.5
t25 -73.5l-5 -226q-1 -22 9 -36t25 -14q24 0 36 12q4 4 7 4q5 0 8.5 -3.5t3.5 -7.5q0 -11 -14 -25q-17 -17 -36.5 -26.5t-37.5 -9.5q-51 0 -80 54h-3q-33 -29 -62 -41.5t-60 -12.5q-20 0 -40.5 13.5zM222 61q10 10 11 36l2 57v5q0 14 -9 14q-6 0 -17 -5q-44 -17 -62.5 -35
t-18.5 -41q0 -25 13.5 -38.5t31.5 -13.5q28 0 49 21zM142 505.5q-26 25.5 -26 61.5t29.5 63t66.5 27q36 0 62 -24t26 -59q0 -41 -29 -67.5t-67 -26.5q-36 0 -62 25.5zM242.5 525q9.5 16 9.5 42q0 22 -14.5 40t-34.5 18t-29.5 -15t-9.5 -39q0 -25 13.5 -43.5t34.5 -18.5
t30.5 16z" />
    <glyph glyph-name="ae" unicode="&#xe6;" horiz-adv-x="580" 
d="M63 12q-29 26 -29 57q0 33 18.5 55t58.5 39l99 42q20 9 25 15t5 20v64q0 28 -14.5 46t-39.5 18q-16 0 -33 -9.5t-23 -19.5q-5 -6 -5 -19q0 -5 1 -9t1 -9q0 -10 -31 -23.5t-46 -13.5q-5 0 -8 4.5t-3 9.5q0 16 11 34t31 35q32 27 75.5 50t80.5 23q17 0 37.5 -10t31.5 -22
q3 -5 5 -5t8 4q21 13 50 22.5t56 9.5q52 0 91 -27.5t39 -75.5q0 -15 -6 -22t-18 -12q-9 -4 -39 -15q-122 -47 -152 -60q-4 -1 -7.5 -7t-3.5 -11v-46q0 -42 27 -64t65 -22q68 0 110 50q5 5 11 5q5 0 8.5 -3.5t3.5 -8.5t-2 -11q-34 -53 -73 -78.5t-99 -25.5q-67 0 -118 45
q-10 10 -12 10q-3 0 -8 -5q-3 -2 -19 -16.5t-41.5 -24t-54.5 -9.5q-35 0 -64 26zM439 286l25 8q6 2 8 6t2 12q0 29 -19 50t-51 21q-12 0 -29.5 -8t-30.5 -21.5t-13 -29.5v-63q0 -6 4.5 -8.5t8.5 -0.5q39 15 95 34zM226 62q12 10 12 33v55q0 13 -1 17.5t-6 4.5t-14 -3
q-32 -10 -59.5 -30.5t-28.5 -46.5q0 -26 14.5 -39.5t30.5 -13.5q27 0 52 23z" />
    <glyph glyph-name="ccedilla" unicode="&#xe7;" horiz-adv-x="408" 
d="M119.5 11.5q-41.5 26.5 -65 72.5t-23.5 103q0 64 29 117.5t78 84.5t108 31q72 0 122 -41q11 -9 11 -19q0 -12 -16 -27.5t-29 -15.5q-6 0 -12.5 4t-12.5 9q-25 20 -51.5 34t-44.5 14q-45 0 -71.5 -41t-26.5 -113q0 -71 40.5 -117.5t103.5 -46.5q29 0 50.5 9.5t45.5 32.5
q10 6 13 6q5 0 8 -4t3 -10q0 -12 -12 -30q-23 -33 -64 -56t-91 -23q-51 0 -92.5 26.5zM135 -265q-8 9 -8 34q0 21 14 21q5 0 22 -6t36 -6q17 0 26 11.5t9 31.5q0 25 -17 38.5t-41 13.5q-8 0 -16.5 -4t-11.5 -4q-7 0 -13 5.5t-6 13.5q0 7 8 15l88 109h36l-37 -47
q-5 -8 -5 -11q0 -5 11 -11q26 -11 42.5 -31.5t16.5 -46.5q0 -36 -22 -67t-53 -49.5t-53 -18.5q-18 0 -26 9z" />
    <glyph glyph-name="egrave" unicode="&#xe8;" horiz-adv-x="400" 
d="M116 13q-42 28 -65.5 77.5t-23.5 113.5q0 58 27.5 107.5t74 79t100.5 29.5q62 0 102.5 -37t40.5 -93q0 -17 -7.5 -25t-23.5 -8h-207q-14 0 -19.5 -8t-5.5 -29q0 -44 19 -81t52.5 -58.5t73.5 -21.5q56 0 100 44q5 8 11 8q9 0 9 -11q0 -15 -14 -38q-21 -34 -60.5 -55.5
t-87.5 -21.5q-54 0 -96 28zM215 291q45 0 69 5q9 3 9 25q0 28 -23 47.5t-55 19.5q-21 0 -43 -13t-35.5 -33t-13.5 -39q0 -12 13 -12h79zM226 475q-24 23 -58.5 63t-56.5 70q-1 1 -5.5 8t-4.5 14q0 11 15 16.5t38 5.5q22 0 33 -20q15 -27 39.5 -74.5t33.5 -72.5q4 -12 4 -19
q0 -10 -9 -10q-10 0 -29 19z" />
    <glyph glyph-name="eacute" unicode="&#xe9;" horiz-adv-x="400" 
d="M116 13q-42 28 -65.5 77.5t-23.5 113.5q0 58 27.5 107.5t74 79t100.5 29.5q62 0 102.5 -37t40.5 -93q0 -17 -7.5 -25t-23.5 -8h-207q-14 0 -19.5 -8t-5.5 -29q0 -44 19 -81t52.5 -58.5t73.5 -21.5q56 0 100 44q5 8 11 8q9 0 9 -11q0 -15 -14 -38q-21 -34 -60.5 -55.5
t-87.5 -21.5q-54 0 -96 28zM215 291q45 0 69 5q9 3 9 25q0 28 -23 47.5t-55 19.5q-21 0 -43 -13t-35.5 -33t-13.5 -39q0 -12 13 -12h79zM193 466q0 7 4 19q9 25 33.5 72.5t39.5 74.5q11 20 33 20q23 0 38 -5.5t15 -16.5q0 -7 -4.5 -14t-5.5 -8q-22 -30 -56.5 -70t-58.5 -63
q-19 -19 -29 -19q-9 0 -9 10z" />
    <glyph glyph-name="ecircumflex" unicode="&#xea;" horiz-adv-x="400" 
d="M116 13q-42 28 -65.5 77.5t-23.5 113.5q0 58 27.5 107.5t74 79t100.5 29.5q62 0 102.5 -37t40.5 -93q0 -17 -7.5 -25t-23.5 -8h-207q-14 0 -19.5 -8t-5.5 -29q0 -44 19 -81t52.5 -58.5t73.5 -21.5q56 0 100 44q5 8 11 8q9 0 9 -11q0 -15 -14 -38q-21 -34 -60.5 -55.5
t-87.5 -21.5q-54 0 -96 28zM215 291q45 0 69 5q9 3 9 25q0 28 -23 47.5t-55 19.5q-21 0 -43 -13t-35.5 -33t-13.5 -39q0 -12 13 -12h79zM253 631q77 -128 85 -154q2 -8 2 -10q0 -12 -11 -12q-10 0 -33 25q-8 9 -16.5 20t-17.5 22l-30 37q-3 4 -4.5 4t-4.5 -4l-63 -79
q-9 -9 -18.5 -17t-15.5 -8q-11 0 -11 10l2 12q5 15 35 68.5t50 85.5q14 25 25 25q12 0 26 -25z" />
    <glyph glyph-name="edieresis" unicode="&#xeb;" horiz-adv-x="400" 
d="M116 13q-42 28 -65.5 77.5t-23.5 113.5q0 58 27.5 107.5t74 79t100.5 29.5q62 0 102.5 -37t40.5 -93q0 -17 -7.5 -25t-23.5 -8h-207q-14 0 -19.5 -8t-5.5 -29q0 -44 19 -81t52.5 -58.5t73.5 -21.5q56 0 100 44q5 8 11 8q9 0 9 -11q0 -15 -14 -38q-21 -34 -60.5 -55.5
t-87.5 -21.5q-54 0 -96 28zM215 291q45 0 69 5q9 3 9 25q0 28 -23 47.5t-55 19.5q-21 0 -43 -13t-35.5 -33t-13.5 -39q0 -12 13 -12h79zM95.5 520.5q-17.5 17.5 -17.5 39.5q0 23 17 40.5t40 17.5t41 -17.5t18 -40.5q0 -22 -18 -39.5t-41 -17.5q-22 0 -39.5 17.5z
M278.5 520.5q-17.5 17.5 -17.5 39.5q0 23 17 40.5t40 17.5t41 -17.5t18 -40.5q0 -22 -18 -39.5t-41 -17.5q-22 0 -39.5 17.5z" />
    <glyph glyph-name="igrave" unicode="&#xec;" horiz-adv-x="263" 
d="M23 9q0 11 21 17q25 7 35 14.5t10 23.5v216q0 64 -45 71q-10 1 -10 15q0 12 9 13q65 14 123 53q12 7 16 7q8 0 8 -8q0 -6 -4 -46q-6 -60 -6 -93v-228q0 -15 10.5 -23.5t34.5 -14.5q21 -6 21 -17q0 -12 -18 -12q-26 0 -49 3q-28 2 -45 2t-43 -2q-21 -3 -49 -3
q-19 0 -19 12zM131 475q-24 23 -58.5 63t-56.5 70q-1 1 -5.5 8t-4.5 14q0 11 15 16.5t38 5.5q22 0 33 -20q15 -27 39.5 -74.5t33.5 -72.5q4 -12 4 -19q0 -10 -9 -10q-10 0 -29 19z" />
    <glyph glyph-name="iacute" unicode="&#xed;" horiz-adv-x="263" 
d="M23 9q0 11 21 17q25 7 35 14.5t10 23.5v216q0 64 -45 71q-10 1 -10 15q0 12 9 13q65 14 123 53q12 7 16 7q8 0 8 -8q0 -6 -4 -46q-6 -60 -6 -93v-228q0 -15 10.5 -23.5t34.5 -14.5q21 -6 21 -17q0 -12 -18 -12q-26 0 -49 3q-28 2 -45 2t-43 -2q-21 -3 -49 -3
q-19 0 -19 12zM98 466q0 7 4 19q9 25 33.5 72.5t39.5 74.5q11 20 33 20q23 0 38 -5.5t15 -16.5q0 -7 -4.5 -14t-5.5 -8q-22 -30 -56.5 -70t-58.5 -63q-19 -19 -29 -19q-9 0 -9 10z" />
    <glyph glyph-name="icircumflex" unicode="&#xee;" horiz-adv-x="263" 
d="M23 9q0 11 21 17q25 7 35 14.5t10 23.5v216q0 64 -45 71q-10 1 -10 15q0 12 9 13q65 14 123 53q12 7 16 7q8 0 8 -8q0 -6 -4 -46q-6 -60 -6 -93v-228q0 -15 10.5 -23.5t34.5 -14.5q21 -6 21 -17q0 -12 -18 -12q-26 0 -49 3q-28 2 -45 2t-43 -2q-21 -3 -49 -3
q-19 0 -19 12zM158 631q77 -128 85 -154q2 -8 2 -10q0 -12 -11 -12q-10 0 -33 25q-8 9 -16.5 20t-17.5 22l-30 37q-3 4 -4.5 4t-4.5 -4l-63 -79q-9 -9 -18.5 -17t-15.5 -8q-11 0 -11 10l2 12q5 15 35 68.5t50 85.5q14 25 25 25q12 0 26 -25z" />
    <glyph glyph-name="idieresis" unicode="&#xef;" horiz-adv-x="263" 
d="M23 9q0 11 21 17q25 7 35 14.5t10 23.5v216q0 64 -45 71q-10 1 -10 15q0 12 9 13q65 14 123 53q12 7 16 7q8 0 8 -8q0 -6 -4 -46q-6 -60 -6 -93v-228q0 -15 10.5 -23.5t34.5 -14.5q21 -6 21 -17q0 -12 -18 -12q-26 0 -49 3q-28 2 -45 2t-43 -2q-21 -3 -49 -3
q-19 0 -19 12zM0.5 520.5q-17.5 17.5 -17.5 39.5q0 23 17 40.5t40 17.5t41 -17.5t18 -40.5q0 -22 -18 -39.5t-41 -17.5q-22 0 -39.5 17.5zM183.5 520.5q-17.5 17.5 -17.5 39.5q0 23 17 40.5t40 17.5t41 -17.5t18 -40.5q0 -22 -18 -39.5t-41 -17.5q-22 0 -39.5 17.5z" />
    <glyph glyph-name="eth" unicode="&#xf0;" horiz-adv-x="497" 
d="M130 11.5q-49 25.5 -77.5 72t-28.5 105.5q0 62 32 115.5t86 85t118 31.5q35 0 67 -17q2 -1 5 -1q2 0 2.5 2t-0.5 6q-24 92 -58 137l-144 -75q-4 -2 -6 -2q-5 0 -8.5 4t-3.5 8q0 30 12 36l122 63q-35 36 -76.5 59.5t-81.5 32.5q-13 3 -19 6.5t-6 10.5t9 10.5t23 3.5
q50 0 108 -23.5t109 -65.5l104 55q8 4 14 4q12 0 12 -9q0 -15 -4 -25t-16 -16l-75 -39q117 -125 117 -336q0 -62 -26.5 -123t-79 -101t-124.5 -40q-57 0 -106 25.5zM312 47q25 25 39.5 70.5t14.5 104.5q0 33 -7.5 63.5t-21.5 49.5q-20 22 -44.5 34.5t-51.5 12.5
q-53 0 -83.5 -49.5t-30.5 -119.5q0 -48 17.5 -92t47 -71.5t63.5 -27.5q32 0 57 25z" />
    <glyph glyph-name="ntilde" unicode="&#xf1;" horiz-adv-x="541" 
d="M28.5 0q-5.5 3 -5.5 9q0 7 5.5 11t17.5 7q20 5 30.5 12.5t10.5 25.5v220q0 29 -7 44.5t-28 21.5q-10 2 -10 14q0 13 9 14q64 17 116 51q8 6 13 6q7 0 7 -9l-2 -20q-1 -7 -2 -18t-1 -23q0 -11 2 -13q35 34 73 50.5t84 16.5q50 0 83 -39.5t33 -100.5v-216q0 -18 10 -24
t32 -13q22 -8 22 -19t-19 -11q-28 0 -48 3q-26 2 -42 2t-42 -2q-19 -3 -48 -3q-7 0 -13 2.5t-6 8.5q0 11 22 19q22 7 31.5 13t9.5 24v207q0 41 -22 64.5t-59 24.5q-55 0 -98 -35q-8 -8 -8 -21v-240q0 -18 10 -25t30 -12q22 -6 22 -18t-19 -12q-27 0 -47 3q-24 2 -41 2
q-16 0 -42 -2q-21 -3 -49 -3q-9 0 -14.5 3zM136.5 465.5q-5.5 4.5 -5.5 11.5q0 6 19.5 31.5t41.5 47t33 21.5q9 0 29 -2l28 -3q50 -4 60 -4q21 0 38 19l16 18t10 9q7 0 14 -5.5t7 -12.5q0 -3 -9 -13t-13 -15q-5 -6 -30 -38l-16 -21q-5 -7 -14.5 -10.5t-15.5 -3.5
q-15 0 -45 3q-67 5 -78 5q-16 0 -33 -19q-3 -3 -12 -13t-12 -10q-7 0 -12.5 4.5z" />
    <glyph glyph-name="ograve" unicode="&#xf2;" horiz-adv-x="498" 
d="M131.5 12q-46.5 26 -73.5 73t-27 105t30 111.5t82 86.5t113 33q58 0 106.5 -28t76.5 -75t28 -101q0 -62 -26.5 -115t-79 -84.5t-126.5 -31.5q-57 0 -103.5 26zM344 68q21 39 21 125q0 50 -16 94t-44.5 71t-65.5 27q-24 0 -42 -7.5t-33 -25.5q-17 -22 -24 -56.5t-7 -82.5
q0 -49 16 -93t44.5 -71.5t62.5 -27.5q62 0 88 47zM254 475q-24 23 -58.5 63t-56.5 70q-1 1 -5.5 8t-4.5 14q0 11 15 16.5t38 5.5q22 0 33 -20q15 -27 39.5 -74.5t33.5 -72.5q4 -12 4 -19q0 -10 -9 -10q-10 0 -29 19z" />
    <glyph glyph-name="oacute" unicode="&#xf3;" horiz-adv-x="498" 
d="M131.5 12q-46.5 26 -73.5 73t-27 105t30 111.5t82 86.5t113 33q58 0 106.5 -28t76.5 -75t28 -101q0 -62 -26.5 -115t-79 -84.5t-126.5 -31.5q-57 0 -103.5 26zM344 68q21 39 21 125q0 50 -16 94t-44.5 71t-65.5 27q-24 0 -42 -7.5t-33 -25.5q-17 -22 -24 -56.5t-7 -82.5
q0 -49 16 -93t44.5 -71.5t62.5 -27.5q62 0 88 47zM221 466q0 7 4 19q9 25 33.5 72.5t39.5 74.5q11 20 33 20q23 0 38 -5.5t15 -16.5q0 -7 -4.5 -14t-5.5 -8q-22 -30 -56.5 -70t-58.5 -63q-19 -19 -29 -19q-9 0 -9 10z" />
    <glyph glyph-name="ocircumflex" unicode="&#xf4;" horiz-adv-x="498" 
d="M131.5 12q-46.5 26 -73.5 73t-27 105t30 111.5t82 86.5t113 33q58 0 106.5 -28t76.5 -75t28 -101q0 -62 -26.5 -115t-79 -84.5t-126.5 -31.5q-57 0 -103.5 26zM344 68q21 39 21 125q0 50 -16 94t-44.5 71t-65.5 27q-24 0 -42 -7.5t-33 -25.5q-17 -22 -24 -56.5t-7 -82.5
q0 -49 16 -93t44.5 -71.5t62.5 -27.5q62 0 88 47zM281 631q77 -128 85 -154q2 -8 2 -10q0 -12 -11 -12q-10 0 -33 25q-8 9 -16.5 20t-17.5 22l-30 37q-3 4 -4.5 4t-4.5 -4l-63 -79q-9 -9 -18.5 -17t-15.5 -8q-11 0 -11 10l2 12q5 15 35 68.5t50 85.5q14 25 25 25
q12 0 26 -25z" />
    <glyph glyph-name="otilde" unicode="&#xf5;" horiz-adv-x="498" 
d="M131.5 12q-46.5 26 -73.5 73t-27 105t30 111.5t82 86.5t113 33q58 0 106.5 -28t76.5 -75t28 -101q0 -62 -26.5 -115t-79 -84.5t-126.5 -31.5q-57 0 -103.5 26zM344 68q21 39 21 125q0 50 -16 94t-44.5 71t-65.5 27q-24 0 -42 -7.5t-33 -25.5q-17 -22 -24 -56.5t-7 -82.5
q0 -49 16 -93t44.5 -71.5t62.5 -27.5q62 0 88 47zM112.5 465.5q-5.5 4.5 -5.5 11.5q0 6 19.5 31.5t41.5 47t33 21.5q9 0 29 -2l28 -3q50 -4 60 -4q21 0 38 19l16 18t10 9q7 0 14 -5.5t7 -12.5q0 -3 -9 -13t-13 -15q-5 -6 -30 -38l-16 -21q-5 -7 -14.5 -10.5t-15.5 -3.5
q-15 0 -45 3q-67 5 -78 5q-16 0 -33 -19q-3 -3 -12 -13t-12 -10q-7 0 -12.5 4.5z" />
    <glyph glyph-name="odieresis" unicode="&#xf6;" horiz-adv-x="498" 
d="M131.5 12q-46.5 26 -73.5 73t-27 105t30 111.5t82 86.5t113 33q58 0 106.5 -28t76.5 -75t28 -101q0 -62 -26.5 -115t-79 -84.5t-126.5 -31.5q-57 0 -103.5 26zM344 68q21 39 21 125q0 50 -16 94t-44.5 71t-65.5 27q-24 0 -42 -7.5t-33 -25.5q-17 -22 -24 -56.5t-7 -82.5
q0 -49 16 -93t44.5 -71.5t62.5 -27.5q62 0 88 47zM123.5 520.5q-17.5 17.5 -17.5 39.5q0 23 17 40.5t40 17.5t41 -17.5t18 -40.5q0 -22 -18 -39.5t-41 -17.5q-22 0 -39.5 17.5zM306.5 520.5q-17.5 17.5 -17.5 39.5q0 23 17 40.5t40 17.5t41 -17.5t18 -40.5q0 -22 -18 -39.5
t-41 -17.5q-22 0 -39.5 17.5z" />
    <glyph glyph-name="divide" unicode="&#xf7;" horiz-adv-x="593" 
d="M258 367.5q-16 16.5 -16 38.5q0 23 16 39t38 16q23 0 39.5 -16t16.5 -39t-16.5 -39t-39.5 -16q-22 0 -38 16.5zM63 242.5q-5 3.5 -5 7.5q0 12 6 27t20 15h437q6 0 11 -3.5t5 -7.5q0 -15 -9 -28.5t-23 -13.5h-431q-6 0 -11 3.5zM259 82.5q-16 16.5 -16 38.5q0 23 16 39
t38 16q23 0 39.5 -16t16.5 -39t-16.5 -39t-39.5 -16q-22 0 -38 16.5z" />
    <glyph glyph-name="oslash" unicode="&#xf8;" horiz-adv-x="491" 
d="M423 341q44 -55 44 -124q0 -62 -26.5 -115t-79 -84.5t-126.5 -31.5q-76 0 -131 44l-40 -39q-6 -6 -13 -6q-10 0 -18 6.5t-8 14.5q0 15 11 24l36 34q-41 54 -41 126q0 58 30 111.5t82 86.5t113 33q77 0 137 -49l46 44q5 5 15 5q15 0 15 -18q0 -7 -3 -15.5t-9 -13.5z
M145 134l191 183q-17 32 -42 50t-55 18q-24 0 -42 -7.5t-33 -25.5q-17 -22 -24 -56.5t-7 -82.5q0 -41 12 -79zM354 273l-190 -185q17 -31 40.5 -49t51.5 -18q62 0 88 47q21 39 21 125q0 41 -11 80z" />
    <glyph glyph-name="ugrave" unicode="&#xf9;" horiz-adv-x="535" 
d="M351 -11l2 29q3 18 3 33v8q-70 -73 -163 -73q-49 0 -80.5 34t-31.5 92v198q0 22 -10 35.5t-32 20.5q-14 4 -14 17q0 15 15 17q34 2 57 6t58 13q10 2 13 2q12 0 11 -14q-7 -43 -7 -77v-194q0 -36 23 -61.5t53 -26.5q26 0 43 4t33 17q36 28 36 71v175q0 26 -19.5 38.5
t-42.5 13.5q-22 0 -22 18q0 17 22 17q55 2 82.5 5.5t56.5 11.5q6 2 11 2q6 0 10 -3t4 -8q0 -3 -1 -5.5t-2 -5.5q-2 -12 -4.5 -35t-2.5 -35v-231q0 -46 18 -46l40 2q16 0 16 -15q0 -14 -15 -16q-38 -5 -67.5 -14t-62.5 -22q-14 -7 -22 -7t-8 9zM262 475q-24 23 -58.5 63
t-56.5 70q-1 1 -5.5 8t-4.5 14q0 11 15 16.5t38 5.5q22 0 33 -20q15 -27 39.5 -74.5t33.5 -72.5q4 -12 4 -19q0 -10 -9 -10q-10 0 -29 19z" />
    <glyph glyph-name="uacute" unicode="&#xfa;" horiz-adv-x="535" 
d="M351 -11l2 29q3 18 3 33v8q-70 -73 -163 -73q-49 0 -80.5 34t-31.5 92v198q0 22 -10 35.5t-32 20.5q-14 4 -14 17q0 15 15 17q34 2 57 6t58 13q10 2 13 2q12 0 11 -14q-7 -43 -7 -77v-194q0 -36 23 -61.5t53 -26.5q26 0 43 4t33 17q36 28 36 71v175q0 26 -19.5 38.5
t-42.5 13.5q-22 0 -22 18q0 17 22 17q55 2 82.5 5.5t56.5 11.5q6 2 11 2q6 0 10 -3t4 -8q0 -3 -1 -5.5t-2 -5.5q-2 -12 -4.5 -35t-2.5 -35v-231q0 -46 18 -46l40 2q16 0 16 -15q0 -14 -15 -16q-38 -5 -67.5 -14t-62.5 -22q-14 -7 -22 -7t-8 9zM229 466q0 7 4 19
q9 25 33.5 72.5t39.5 74.5q11 20 33 20q23 0 38 -5.5t15 -16.5q0 -7 -4.5 -14t-5.5 -8q-22 -30 -56.5 -70t-58.5 -63q-19 -19 -29 -19q-9 0 -9 10z" />
    <glyph glyph-name="ucircumflex" unicode="&#xfb;" horiz-adv-x="535" 
d="M351 -11l2 29q3 18 3 33v8q-70 -73 -163 -73q-49 0 -80.5 34t-31.5 92v198q0 22 -10 35.5t-32 20.5q-14 4 -14 17q0 15 15 17q34 2 57 6t58 13q10 2 13 2q12 0 11 -14q-7 -43 -7 -77v-194q0 -36 23 -61.5t53 -26.5q26 0 43 4t33 17q36 28 36 71v175q0 26 -19.5 38.5
t-42.5 13.5q-22 0 -22 18q0 17 22 17q55 2 82.5 5.5t56.5 11.5q6 2 11 2q6 0 10 -3t4 -8q0 -3 -1 -5.5t-2 -5.5q-2 -12 -4.5 -35t-2.5 -35v-231q0 -46 18 -46l40 2q16 0 16 -15q0 -14 -15 -16q-38 -5 -67.5 -14t-62.5 -22q-14 -7 -22 -7t-8 9zM289 631q77 -128 85 -154
q2 -8 2 -10q0 -12 -11 -12q-10 0 -33 25q-8 9 -16.5 20t-17.5 22l-30 37q-3 4 -4.5 4t-4.5 -4l-63 -79q-9 -9 -18.5 -17t-15.5 -8q-11 0 -11 10l2 12q5 15 35 68.5t50 85.5q14 25 25 25q12 0 26 -25z" />
    <glyph glyph-name="udieresis" unicode="&#xfc;" horiz-adv-x="535" 
d="M351 -11l2 29q3 18 3 33v8q-70 -73 -163 -73q-49 0 -80.5 34t-31.5 92v198q0 22 -10 35.5t-32 20.5q-14 4 -14 17q0 15 15 17q34 2 57 6t58 13q10 2 13 2q12 0 11 -14q-7 -43 -7 -77v-194q0 -36 23 -61.5t53 -26.5q26 0 43 4t33 17q36 28 36 71v175q0 26 -19.5 38.5
t-42.5 13.5q-22 0 -22 18q0 17 22 17q55 2 82.5 5.5t56.5 11.5q6 2 11 2q6 0 10 -3t4 -8q0 -3 -1 -5.5t-2 -5.5q-2 -12 -4.5 -35t-2.5 -35v-231q0 -46 18 -46l40 2q16 0 16 -15q0 -14 -15 -16q-38 -5 -67.5 -14t-62.5 -22q-14 -7 -22 -7t-8 9zM131.5 520.5
q-17.5 17.5 -17.5 39.5q0 23 17 40.5t40 17.5t41 -17.5t18 -40.5q0 -22 -18 -39.5t-41 -17.5q-22 0 -39.5 17.5zM314.5 520.5q-17.5 17.5 -17.5 39.5q0 23 17 40.5t40 17.5t41 -17.5t18 -40.5q0 -22 -18 -39.5t-41 -17.5q-22 0 -39.5 17.5z" />
    <glyph glyph-name="yacute" unicode="&#xfd;" horiz-adv-x="453" 
d="M30 -271.5q-18 12.5 -18 35.5q0 20 9.5 34.5t26.5 14.5q9 0 25 -4q4 -1 9 -2t11 -1q11 0 17 3.5t11 13.5q35 56 73 150q6 15 6 32q0 19 -8 37l-118 288q-18 43 -47 52q-11 5 -16 9t-5 11q0 9 21 9q23 0 47 -2q20 -2 35 -2q18 0 40 2q26 2 47 2q8 0 14.5 -3t6.5 -8
q0 -13 -26 -22q-12 -3 -17 -11t-5 -23q0 -14 10 -34l74 -183q2 -5 5 -5q2 0 4 5l63 173q3 7 5 18t2 20q0 29 -23 39q-13 6 -20 11t-7 12q0 5 7 8t14 3q11 0 31 -2q22 -2 40 -2q16 0 34 2q16 2 29 2q21 0 21 -9q0 -7 -5 -11t-16 -9q-17 -5 -33 -23t-26 -42l-141 -336
q-37 -92 -91 -218q-10 -23 -29.5 -35t-44.5 -12q-24 0 -42 12.5zM221 466q0 7 4 19q9 25 33.5 72.5t39.5 74.5q11 20 33 20q23 0 38 -5.5t15 -16.5q0 -7 -4.5 -14t-5.5 -8q-22 -30 -56.5 -70t-58.5 -63q-19 -19 -29 -19q-9 0 -9 10z" />
    <glyph glyph-name="thorn" unicode="&#xfe;" horiz-adv-x="520" 
d="M16 -266q0 11 23 19q23 7 33 14t10 24v769q0 28 -10.5 48t-33.5 25q-8 2 -8 14q0 11 7 13q39 8 101 32l29 11l6 2q3 0 5 -3t2 -6q0 -7 -2.5 -35.5t-3.5 -76.5v-190q0 -29 2 -41q21 20 68 42.5t88 22.5q50 0 87.5 -27.5t58 -71.5t20.5 -92q0 -60 -31 -116t-83 -91
t-114 -35q-21 0 -49.5 8t-43.5 20q-3 0 -3 -40v-178q0 -20 10 -28t33 -15q11 -4 17 -7.5t6 -10.5q0 -11 -21 -11q-28 0 -49 3q-26 2 -43 2q-16 0 -42 -2q-19 -3 -47 -3q-22 0 -22 11zM327.5 38.5q27.5 17.5 48 56t20.5 98.5q0 99 -39 135.5t-84 36.5q-43 0 -77 -29
q-22 -16 -22 -69v-150q0 -18 5 -39t16 -33q10 -10 32.5 -17t51.5 -7q21 0 48.5 17.5z" />
    <glyph glyph-name="ydieresis" unicode="&#xff;" horiz-adv-x="453" 
d="M30 -271.5q-18 12.5 -18 35.5q0 20 9.5 34.5t26.5 14.5q9 0 25 -4q4 -1 9 -2t11 -1q11 0 17 3.5t11 13.5q35 56 73 150q6 15 6 32q0 19 -8 37l-118 288q-18 43 -47 52q-11 5 -16 9t-5 11q0 9 21 9q23 0 47 -2q20 -2 35 -2q18 0 40 2q26 2 47 2q8 0 14.5 -3t6.5 -8
q0 -13 -26 -22q-12 -3 -17 -11t-5 -23q0 -14 10 -34l74 -183q2 -5 5 -5q2 0 4 5l63 173q3 7 5 18t2 20q0 29 -23 39q-13 6 -20 11t-7 12q0 5 7 8t14 3q11 0 31 -2q22 -2 40 -2q16 0 34 2q16 2 29 2q21 0 21 -9q0 -7 -5 -11t-16 -9q-17 -5 -33 -23t-26 -42l-141 -336
q-37 -92 -91 -218q-10 -23 -29.5 -35t-44.5 -12q-24 0 -42 12.5zM123.5 520.5q-17.5 17.5 -17.5 39.5q0 23 17 40.5t40 17.5t41 -17.5t18 -40.5q0 -22 -18 -39.5t-41 -17.5q-22 0 -39.5 17.5zM306.5 520.5q-17.5 17.5 -17.5 39.5q0 23 17 40.5t40 17.5t41 -17.5t18 -40.5
q0 -22 -18 -39.5t-41 -17.5q-22 0 -39.5 17.5z" />
    <glyph glyph-name="Amacron" unicode="&#x100;" horiz-adv-x="702" 
d="M5 -1.5q-8 3.5 -8 10.5q0 14 30 23q29 8 50.5 25t34.5 48q52 119 92.5 221.5t89.5 238.5q14 36 18 66q29 7 48 17q12 6 19.5 18.5t9.5 15.5q6 4 9 -2q3 -5 5 -12t3 -12q60 -191 157 -478l20 -59q16 -46 38 -64t57 -25q15 -3 22.5 -9t7.5 -14q0 -11 -26 -11l-62 2
q-43 3 -85 3l-68 -1q-20 -1 -53 -1q-12 0 -19.5 3.5t-7.5 9.5q0 7 8.5 12.5t21.5 7.5q35 6 50 18t12 32q-1 18 -10.5 54.5t-18.5 71.5q-2 5 -7 23q-2 7 -7 9.5t-17 2.5h-185q-10 0 -17 -17q-10 -30 -23 -74.5t-15 -58.5q-6 -46 59 -62q30 -7 30 -20q0 -12 -27 -12
q-25 0 -40 1l-57 1q-15 0 -35 -1t-30 -2q-28 -3 -54 -3q-12 0 -20 3.5zM408 284q6 0 10 1t4 4q0 1 -2 11l-74 237q-5 16 -8 16q-2 0 -7 -15l-87 -238l-2 -8q0 -5 5 -6.5t15 -1.5h146zM221.5 725.5q-4.5 4.5 -4.5 9.5q0 16 7.5 32.5t20.5 16.5h265q6 0 10.5 -4.5t4.5 -9.5
q0 -18 -10.5 -33.5t-23.5 -15.5h-258q-7 0 -11.5 4.5z" />
    <glyph glyph-name="amacron" unicode="&#x101;" horiz-adv-x="413" 
d="M80.5 -0.5q-20.5 13.5 -33.5 34t-13 40.5q0 32 18 52t58 37l97 41q20 8 24 14t5 27l2 61q1 28 -13.5 45.5t-40.5 17.5q-14 0 -28.5 -5t-23.5 -13q-8 -8 -8 -26l1 -22q0 -8 -28.5 -22.5t-45.5 -14.5q-6 0 -9.5 4t-3.5 9q0 33 42 69q35 31 80 51.5t77 20.5q42 0 68 -28.5
t25 -73.5l-5 -226q-1 -22 9 -36t25 -14q24 0 36 12q4 4 7 4q5 0 8.5 -3.5t3.5 -7.5q0 -11 -14 -25q-17 -17 -36.5 -26.5t-37.5 -9.5q-51 0 -80 54h-3q-33 -29 -62 -41.5t-60 -12.5q-20 0 -40.5 13.5zM222 61q10 10 11 36l2 57v5q0 14 -9 14q-6 0 -17 -5q-44 -17 -62.5 -35
t-18.5 -41q0 -25 13.5 -38.5t31.5 -13.5q28 0 49 21zM81.5 507.5q-4.5 4.5 -4.5 9.5q0 16 8 33t21 17h222q6 0 10.5 -4.5t4.5 -9.5q0 -20 -9.5 -35t-24.5 -15h-216q-7 0 -11.5 4.5z" />
    <glyph glyph-name="Abreve" unicode="&#x102;" horiz-adv-x="702" 
d="M5 -1.5q-8 3.5 -8 10.5q0 14 30 23q29 8 50.5 25t34.5 48q52 119 92.5 221.5t89.5 238.5q14 36 18 66q29 7 48 17q12 6 19.5 18.5t9.5 15.5q6 4 9 -2q3 -5 5 -12t3 -12q60 -191 157 -478l20 -59q16 -46 38 -64t57 -25q15 -3 22.5 -9t7.5 -14q0 -11 -26 -11l-62 2
q-43 3 -85 3l-68 -1q-20 -1 -53 -1q-12 0 -19.5 3.5t-7.5 9.5q0 7 8.5 12.5t21.5 7.5q35 6 50 18t12 32q-1 18 -10.5 54.5t-18.5 71.5q-2 5 -7 23q-2 7 -7 9.5t-17 2.5h-185q-10 0 -17 -17q-10 -30 -23 -74.5t-15 -58.5q-6 -46 59 -62q30 -7 30 -20q0 -12 -27 -12
q-25 0 -40 1l-57 1q-15 0 -35 -1t-30 -2q-28 -3 -54 -3q-12 0 -20 3.5zM408 284q6 0 10 1t4 4q0 1 -2 11l-74 237q-5 16 -8 16q-2 0 -7 -15l-87 -238l-2 -8q0 -5 5 -6.5t15 -1.5h146zM294 708q-32 18 -49 44.5t-17 48.5q0 11 3 18t8 7q6 0 11.5 -4.5t9 -9t5.5 -7.5
q21 -25 45.5 -36t57.5 -11t57.5 11t45.5 36q2 3 7 9t9.5 9t9.5 3q7 0 9 -6t2 -19q0 -22 -17 -48.5t-49 -44.5t-74 -18t-74 18z" />
    <glyph glyph-name="abreve" unicode="&#x103;" horiz-adv-x="413" 
d="M80.5 -0.5q-20.5 13.5 -33.5 34t-13 40.5q0 32 18 52t58 37l97 41q20 8 24 14t5 27l2 61q1 28 -13.5 45.5t-40.5 17.5q-14 0 -28.5 -5t-23.5 -13q-8 -8 -8 -26l1 -22q0 -8 -28.5 -22.5t-45.5 -14.5q-6 0 -9.5 4t-3.5 9q0 33 42 69q35 31 80 51.5t77 20.5q42 0 68 -28.5
t25 -73.5l-5 -226q-1 -22 9 -36t25 -14q24 0 36 12q4 4 7 4q5 0 8.5 -3.5t3.5 -7.5q0 -11 -14 -25q-17 -17 -36.5 -26.5t-37.5 -9.5q-51 0 -80 54h-3q-33 -29 -62 -41.5t-60 -12.5q-20 0 -40.5 13.5zM222 61q10 10 11 36l2 57v5q0 14 -9 14q-6 0 -17 -5q-44 -17 -62.5 -35
t-18.5 -41q0 -25 13.5 -38.5t31.5 -13.5q28 0 49 21zM146.5 492q-25.5 17 -38 43t-12.5 51q0 12 5 19.5t13 7.5q13 0 17 -21q5 -23 24.5 -36.5t54.5 -13.5t54.5 13.5t24.5 36.5q4 21 17 21q8 0 13 -7.5t5 -19.5q0 -25 -12.5 -51t-38 -43t-63.5 -17t-63.5 17z" />
    <glyph glyph-name="Aogonek" unicode="&#x104;" horiz-adv-x="702" 
d="M5 -1.5q-8 3.5 -8 10.5q0 14 30 23q29 8 50.5 25t34.5 48q52 119 92.5 221.5t89.5 238.5q14 36 18 66q29 7 48 17q12 6 19.5 18.5t9.5 15.5q6 4 9 -2q3 -5 5 -12t3 -12q60 -191 157 -478l20 -59q16 -46 38 -64t57 -25q15 -3 22.5 -9t7.5 -14q0 -11 -26 -11l-62 2
q-43 3 -85 3l-68 -1q-20 -1 -53 -1q-12 0 -19.5 3.5t-7.5 9.5q0 7 8.5 12.5t21.5 7.5q35 6 50 18t12 32q-1 18 -10.5 54.5t-18.5 71.5q-2 5 -7 23q-2 7 -7 9.5t-17 2.5h-185q-10 0 -17 -17q-10 -30 -23 -74.5t-15 -58.5q-6 -46 59 -62q30 -7 30 -20q0 -12 -27 -12
q-25 0 -40 1l-57 1q-15 0 -35 -1t-30 -2q-28 -3 -54 -3q-12 0 -20 3.5zM408 284q6 0 10 1t4 4q0 1 -2 11l-74 237q-5 16 -8 16q-2 0 -7 -15l-87 -238l-2 -8q0 -5 5 -6.5t15 -1.5h146zM445 -255q-33 32 -33 81q0 61 59.5 112.5t111.5 79.5h31q-3 -3 -31.5 -27t-52.5 -63.5
t-24 -79.5q0 -25 18 -42t44 -17q30 0 52.5 17.5t24.5 19.5q4 2 7 2q9 0 9 -11q0 -22 -20.5 -46.5t-52 -41t-60.5 -16.5q-50 0 -83 32z" />
    <glyph glyph-name="aogonek" unicode="&#x105;" horiz-adv-x="413" 
d="M80.5 -0.5q-20.5 13.5 -33.5 34t-13 40.5q0 32 18 52t58 37l97 41q20 8 24 14t5 27l2 61q1 28 -13.5 45.5t-40.5 17.5q-14 0 -28.5 -5t-23.5 -13q-8 -8 -8 -26l1 -22q0 -8 -28.5 -22.5t-45.5 -14.5q-6 0 -9.5 4t-3.5 9q0 33 42 69q35 31 80 51.5t77 20.5q42 0 68 -28.5
t25 -73.5l-5 -226q-1 -22 9 -36t25 -14q24 0 36 12q4 4 7 4q5 0 8.5 -3.5t3.5 -7.5q0 -11 -14 -25q-17 -17 -36.5 -26.5t-37.5 -9.5q-51 0 -80 54h-3q-33 -29 -62 -41.5t-60 -12.5q-20 0 -40.5 13.5zM222 61q10 10 11 36l2 57v5q0 14 -9 14q-6 0 -17 -5q-44 -17 -62.5 -35
t-18.5 -41q0 -25 13.5 -38.5t31.5 -13.5q28 0 49 21zM240.5 -259q-27.5 28 -27.5 80q0 44 28.5 85.5t62 70t55.5 41.5h33q-48 -45 -73 -81.5t-25 -86.5q0 -31 16 -47.5t42 -16.5q24 0 39 10l18 12q2 1 6 1q7 0 7 -9q0 -15 -14.5 -36t-39.5 -36t-53 -15q-47 0 -74.5 28z" />
    <glyph glyph-name="Cacute" unicode="&#x106;" horiz-adv-x="710" 
d="M225 27.5q-84 42.5 -134.5 119t-50.5 174.5q0 94 52 172.5t142 124t198 45.5q51 0 89 -7t91 -22q13 -4 19.5 -11.5t7.5 -20.5q6 -58 9 -116q0 -7 -5.5 -11.5t-11.5 -4.5q-15 0 -19 15q-10 38 -22.5 62t-33.5 40q-49 38 -138 38q-73 0 -130.5 -39t-90 -103t-32.5 -137
q0 -85 31.5 -159t90 -118.5t136.5 -44.5q71 0 118 31t80 95q8 14 21 14q6 0 10 -4t4 -12q0 -14 -7.5 -45t-17.5 -58q-6 -13 -11 -18t-19 -10q-37 -15 -88.5 -23.5t-106.5 -8.5q-97 0 -181 42.5zM355 691q0 7 7 17q51 75 88 121q9 13 29 13q15 -1 39.5 -10t23.5 -18
q-1 -6 -4 -10t-11 -10q-31 -24 -91 -65q-36 -24 -52 -36q-13 -9 -21 -9t-8 7z" />
    <glyph glyph-name="cacute" unicode="&#x107;" horiz-adv-x="408" 
d="M119.5 11.5q-41.5 26.5 -65 72.5t-23.5 103q0 64 29 117.5t78 84.5t108 31q72 0 122 -41q11 -9 11 -19q0 -12 -16 -27.5t-29 -15.5q-6 0 -12.5 4t-12.5 9q-25 20 -51.5 34t-44.5 14q-45 0 -71.5 -41t-26.5 -113q0 -71 40.5 -117.5t103.5 -46.5q29 0 50.5 9.5t45.5 32.5
q10 6 13 6q5 0 8 -4t3 -10q0 -12 -12 -30q-23 -33 -64 -56t-91 -23q-51 0 -92.5 26.5zM201 466q0 7 4 19q9 25 33.5 72.5t39.5 74.5q11 20 33 20q23 0 38 -5.5t15 -16.5q0 -7 -4.5 -14t-5.5 -8q-22 -30 -56.5 -70t-58.5 -63q-19 -19 -29 -19q-9 0 -9 10z" />
    <glyph glyph-name="Ccircumflex" unicode="&#x108;" horiz-adv-x="710" 
d="M225 27.5q-84 42.5 -134.5 119t-50.5 174.5q0 94 52 172.5t142 124t198 45.5q51 0 89 -7t91 -22q13 -4 19.5 -11.5t7.5 -20.5q6 -58 9 -116q0 -7 -5.5 -11.5t-11.5 -4.5q-15 0 -19 15q-10 38 -22.5 62t-33.5 40q-49 38 -138 38q-73 0 -130.5 -39t-90 -103t-32.5 -137
q0 -85 31.5 -159t90 -118.5t136.5 -44.5q71 0 118 31t80 95q8 14 21 14q6 0 10 -4t4 -12q0 -14 -7.5 -45t-17.5 -58q-6 -13 -11 -18t-19 -10q-37 -15 -88.5 -23.5t-106.5 -8.5q-97 0 -181 42.5zM250 706q0 7 7 13l101 87q17 15 25 19.5t19 4.5t19 -4.5t25 -19.5l101 -87
q6 -5 6 -13q0 -12 -15 -12q-10 0 -56 20.5t-69 33.5q-5 4 -11 4t-11 -4q-23 -13 -69 -33t-56 -20q-16 0 -16 11z" />
    <glyph glyph-name="ccircumflex" unicode="&#x109;" horiz-adv-x="408" 
d="M119.5 11.5q-41.5 26.5 -65 72.5t-23.5 103q0 64 29 117.5t78 84.5t108 31q72 0 122 -41q11 -9 11 -19q0 -12 -16 -27.5t-29 -15.5q-6 0 -12.5 4t-12.5 9q-25 20 -51.5 34t-44.5 14q-45 0 -71.5 -41t-26.5 -113q0 -71 40.5 -117.5t103.5 -46.5q29 0 50.5 9.5t45.5 32.5
q10 6 13 6q5 0 8 -4t3 -10q0 -12 -12 -30q-23 -33 -64 -56t-91 -23q-51 0 -92.5 26.5zM261 631q77 -128 85 -154q2 -8 2 -10q0 -12 -11 -12q-10 0 -33 25q-8 9 -16.5 20t-17.5 22l-30 37q-3 4 -4.5 4t-4.5 -4l-63 -79q-9 -9 -18.5 -17t-15.5 -8q-11 0 -11 10l2 12
q5 15 35 68.5t50 85.5q14 25 25 25q12 0 26 -25z" />
    <glyph glyph-name="Cdotaccent" unicode="&#x10a;" horiz-adv-x="710" 
d="M225 27.5q-84 42.5 -134.5 119t-50.5 174.5q0 94 52 172.5t142 124t198 45.5q51 0 89 -7t91 -22q13 -4 19.5 -11.5t7.5 -20.5q6 -58 9 -116q0 -7 -5.5 -11.5t-11.5 -4.5q-15 0 -19 15q-10 38 -22.5 62t-33.5 40q-49 38 -138 38q-73 0 -130.5 -39t-90 -103t-32.5 -137
q0 -85 31.5 -159t90 -118.5t136.5 -44.5q71 0 118 31t80 95q8 14 21 14q6 0 10 -4t4 -12q0 -14 -7.5 -45t-17.5 -58q-6 -13 -11 -18t-19 -10q-37 -15 -88.5 -23.5t-106.5 -8.5q-97 0 -181 42.5zM357 712.5q-19 18.5 -19 43.5q0 26 19 44.5t45 18.5q28 0 47 -18.5t19 -44.5
t-19 -44t-47 -18q-26 0 -45 18.5z" />
    <glyph glyph-name="cdotaccent" unicode="&#x10b;" horiz-adv-x="408" 
d="M119.5 11.5q-41.5 26.5 -65 72.5t-23.5 103q0 64 29 117.5t78 84.5t108 31q72 0 122 -41q11 -9 11 -19q0 -12 -16 -27.5t-29 -15.5q-6 0 -12.5 4t-12.5 9q-25 20 -51.5 34t-44.5 14q-45 0 -71.5 -41t-26.5 -113q0 -71 40.5 -117.5t103.5 -46.5q29 0 50.5 9.5t45.5 32.5
q10 6 13 6q5 0 8 -4t3 -10q0 -12 -12 -30q-23 -33 -64 -56t-91 -23q-51 0 -92.5 26.5zM192.5 525.5q-17.5 17.5 -17.5 42.5q0 26 17.5 43.5t42.5 17.5q26 0 44 -17.5t18 -43.5q0 -25 -18 -42.5t-44 -17.5q-25 0 -42.5 17.5z" />
    <glyph glyph-name="Ccaron" unicode="&#x10c;" horiz-adv-x="710" 
d="M225 27.5q-84 42.5 -134.5 119t-50.5 174.5q0 94 52 172.5t142 124t198 45.5q51 0 89 -7t91 -22q13 -4 19.5 -11.5t7.5 -20.5q6 -58 9 -116q0 -7 -5.5 -11.5t-11.5 -4.5q-15 0 -19 15q-10 38 -22.5 62t-33.5 40q-49 38 -138 38q-73 0 -130.5 -39t-90 -103t-32.5 -137
q0 -85 31.5 -159t90 -118.5t136.5 -44.5q71 0 118 31t80 95q8 14 21 14q6 0 10 -4t4 -12q0 -14 -7.5 -45t-17.5 -58q-6 -13 -11 -18t-19 -10q-37 -15 -88.5 -23.5t-106.5 -8.5q-97 0 -181 42.5zM323 811q46 -20 69 -33q8 -4 11 -4t11 4q23 13 69 33.5t56 20.5q15 0 15 -12
q0 -8 -6 -13l-101 -83q-19 -16 -26 -20.5t-18 -4.5t-18 4.5t-26 20.5l-101 83q-7 6 -7 13q0 11 16 11q10 0 56 -20z" />
    <glyph glyph-name="ccaron" unicode="&#x10d;" horiz-adv-x="408" 
d="M119.5 11.5q-41.5 26.5 -65 72.5t-23.5 103q0 64 29 117.5t78 84.5t108 31q72 0 122 -41q11 -9 11 -19q0 -12 -16 -27.5t-29 -15.5q-6 0 -12.5 4t-12.5 9q-25 20 -51.5 34t-44.5 14q-45 0 -71.5 -41t-26.5 -113q0 -71 40.5 -117.5t103.5 -46.5q29 0 50.5 9.5t45.5 32.5
q10 6 13 6q5 0 8 -4t3 -10q0 -12 -12 -30q-23 -33 -64 -56t-91 -23q-51 0 -92.5 26.5zM210 480q-20 32 -50 85.5t-35 68.5l-2 12q0 10 11 10q6 0 15.5 -8t18.5 -17l63 -79q3 -4 4.5 -4t4.5 4l30 37q9 11 17.5 22t16.5 20q23 25 33 25q11 0 11 -12q0 -2 -2 -10
q-8 -26 -85 -154q-14 -25 -26 -25q-11 0 -25 25z" />
    <glyph glyph-name="Dcaron" unicode="&#x10e;" horiz-adv-x="758" 
d="M297 -4q-86 4 -128 4q-18 0 -52 -2q-38 -2 -66 -2q-26 0 -26 13q0 8 6.5 11.5t22.5 6.5q38 7 52.5 22t14.5 49v452q0 34 -14 48.5t-53 22.5q-16 3 -22.5 7t-6.5 12q0 7 7 10.5t19 3.5q25 0 63 -2l59 -1q23 0 99 4q68 4 84 4q119 0 202.5 -41.5t125.5 -113.5t42 -164
q0 -93 -45.5 -172.5t-126 -127t-179.5 -47.5q-28 0 -78 3zM490.5 70q55.5 36 85.5 100.5t30 148.5q0 91 -35 159.5t-94 105t-128 36.5q-48 0 -71.5 -2.5t-37 -14t-13.5 -36.5v-442q0 -52 36 -71.5t99 -19.5q73 0 128.5 36zM290 811q46 -20 69 -33q8 -4 11 -4t11 4
q23 13 69 33.5t56 20.5q15 0 15 -12q0 -8 -6 -13l-101 -83q-19 -16 -26 -20.5t-18 -4.5t-18 4.5t-26 20.5l-101 83q-7 6 -7 13q0 11 16 11q10 0 56 -20z" />
    <glyph glyph-name="dcaron" unicode="&#x10f;" horiz-adv-x="540" 
d="M350 -14q-5 5 -5 7q0 6 2 22q3 20 3 36v6q-18 -29 -53 -50t-78 -21q-55 0 -97.5 29t-66.5 76.5t-24 100.5q0 62 28.5 114t81 83t120.5 31q33 0 68 -11l13 -3q3 0 5 5.5t2 15.5v133q0 37 -11 52.5t-36 20.5q-4 1 -7 5t-3 9q0 10 9 13q60 14 120 39q12 5 17 5q8 0 8 -8
q0 -3 -3 -30.5t-3 -81.5l-2 -471q0 -35 5 -49.5t17 -14.5l42 3h5q6 0 8.5 -2t2.5 -8q0 -7 -5 -13.5t-10 -6.5q-61 -7 -129 -35q-12 -6 -17 -6q-2 0 -7 5zM307 55.5q24 11.5 41 30.5v195q0 24 -15 47t-40.5 37.5t-55.5 14.5q-26 0 -51.5 -16.5t-42.5 -53.5t-17 -94
q0 -62 22 -100.5t53 -55t59 -16.5q23 0 47 11.5zM503.5 506q-2.5 7 -2.5 17q0 6 2 26.5t2 30.5q0 26 -4 54q-2 18 -2 24q0 16 20.5 33.5t39.5 17.5q10 0 13 -8t3 -24q0 -30 -12 -75.5t-28 -75.5q-14 -27 -25 -27q-4 0 -6.5 7z" />
    <glyph glyph-name="Dcroat" unicode="&#x110;" horiz-adv-x="758" 
d="M558.5 617.5q83.5 -41.5 125.5 -113.5t42 -164q0 -93 -45.5 -172.5t-126 -127t-179.5 -47.5q-28 0 -78 3q-86 4 -128 4q-18 0 -52 -2q-38 -2 -66 -2q-26 0 -26 13q0 8 6.5 11.5t22.5 6.5q38 7 52.5 22t14.5 49v215h-62q-8 0 -12.5 7.5t-4.5 14.5q0 9 7.5 15.5t18.5 6.5
h53v193q0 34 -14 48.5t-53 22.5q-16 3 -22.5 7t-6.5 12q0 7 7 10.5t19 3.5q25 0 63 -2l59 -1q23 0 99 4q68 4 84 4q119 0 202.5 -41.5zM490.5 70q55.5 36 85.5 100.5t30 148.5q0 91 -35 159.5t-94 105t-128 36.5q-48 0 -71.5 -2.5t-37 -14t-13.5 -36.5v-210h146q6 0 11 -4
t5 -10l-1 -3q-12 -27 -34 -27h-127v-188q0 -52 36 -71.5t99 -19.5q73 0 128.5 36z" />
    <glyph glyph-name="dcroat" unicode="&#x111;" horiz-adv-x="523" 
d="M440 519l-2 -406q0 -32 5 -48t17 -16q13 0 43 3h2q13 0 13 -14q0 -8 -4.5 -12t-9.5 -4q-58 -7 -130 -35q-4 -2 -10.5 -4t-12.5 -2t-6 5l2 28q3 20 3 37v6q-18 -28 -52 -49.5t-79 -21.5q-56 0 -99 29.5t-66 76.5t-23 98q0 60 28 111.5t80.5 82.5t121.5 31q19 0 43 -6.5
t31 -12.5q8 -8 10 -8q4 0 4 21v110h-136q-8 0 -12.5 7t-4.5 15t7.5 14.5t17.5 6.5h128q0 34 -11 50t-36 21q-4 1 -7 5t-3 9q0 10 9 13q64 15 120 39q13 5 17 5q8 0 8 -8q0 -6 -3 -34.5t-3 -77.5v-22h72q6 0 11 -4t5 -9l-1 -4q-11 -26 -34 -26h-53zM349 263q0 27 -14 53.5
t-39.5 43t-58.5 16.5q-23 0 -48 -15.5t-43 -51.5t-18 -95q0 -67 23 -106.5t53.5 -54.5t56.5 -15q38 0 63 25t25 61v139z" />
    <glyph glyph-name="Emacron" unicode="&#x112;" horiz-adv-x="568" 
d="M31 7q0 13 29 19q38 8 54 23.5t16 48.5v452q0 34 -14 48.5t-51 22.5q-29 6 -29 20q0 6 7 9.5t19 3.5q35 0 87 -2q50 -2 80 -2q67 0 165 2q33 0 56.5 1.5t26.5 1.5q7 0 13 -3t7 -9l5 -30q11 -57 11 -82q0 -9 -4.5 -13t-9.5 -4q-9 0 -14 12q-1 4 -6.5 19.5t-10.5 25.5
t-10 16q-27 28 -68 28h-112q-14 0 -28 -10.5t-14 -25.5v-204q0 -10 6 -16t15 -6h94q27 0 38.5 12t19.5 41q7 20 19 20q5 0 9 -5t4 -13q-4 -56 -4 -73q0 -37 3 -79v-4q0 -16 -9 -16q-16 0 -24 29q-7 27 -17.5 39.5t-29.5 12.5h-93q-17 0 -24 -5.5t-7 -20.5v-191
q0 -34 14.5 -48t46.5 -14h79q58 0 85 19q16 11 29 29t28 49q8 13 17 12q11 0 11 -16t-10 -52.5t-21 -67.5q-7 -16 -17 -16q-70 0 -150 3q-27 1 -69.5 2t-98.5 1q-28 0 -57 -3q-57 -3 -66 -3q-26 0 -26 12zM151.5 725.5q-4.5 4.5 -4.5 9.5q0 16 7.5 32.5t20.5 16.5h265
q6 0 10.5 -4.5t4.5 -9.5q0 -18 -10.5 -33.5t-23.5 -15.5h-258q-7 0 -11.5 4.5z" />
    <glyph glyph-name="emacron" unicode="&#x113;" horiz-adv-x="400" 
d="M116 13q-42 28 -65.5 77.5t-23.5 113.5q0 58 27.5 107.5t74 79t100.5 29.5q62 0 102.5 -37t40.5 -93q0 -17 -7.5 -25t-23.5 -8h-207q-14 0 -19.5 -8t-5.5 -29q0 -44 19 -81t52.5 -58.5t73.5 -21.5q56 0 100 44q5 8 11 8q9 0 9 -11q0 -15 -14 -38q-21 -34 -60.5 -55.5
t-87.5 -21.5q-54 0 -96 28zM215 291q45 0 69 5q9 3 9 25q0 28 -23 47.5t-55 19.5q-21 0 -43 -13t-35.5 -33t-13.5 -39q0 -12 13 -12h79zM99.5 507.5q-4.5 4.5 -4.5 9.5q0 16 8 33t21 17h222q6 0 10.5 -4.5t4.5 -9.5q0 -20 -9.5 -35t-24.5 -15h-216q-7 0 -11.5 4.5z" />
    <glyph glyph-name="Ebreve" unicode="&#x114;" horiz-adv-x="568" 
d="M31 7q0 13 29 19q38 8 54 23.5t16 48.5v452q0 34 -14 48.5t-51 22.5q-29 6 -29 20q0 6 7 9.5t19 3.5q35 0 87 -2q50 -2 80 -2q67 0 165 2q33 0 56.5 1.5t26.5 1.5q7 0 13 -3t7 -9l5 -30q11 -57 11 -82q0 -9 -4.5 -13t-9.5 -4q-9 0 -14 12q-1 4 -6.5 19.5t-10.5 25.5
t-10 16q-27 28 -68 28h-112q-14 0 -28 -10.5t-14 -25.5v-204q0 -10 6 -16t15 -6h94q27 0 38.5 12t19.5 41q7 20 19 20q5 0 9 -5t4 -13q-4 -56 -4 -73q0 -37 3 -79v-4q0 -16 -9 -16q-16 0 -24 29q-7 27 -17.5 39.5t-29.5 12.5h-93q-17 0 -24 -5.5t-7 -20.5v-191
q0 -34 14.5 -48t46.5 -14h79q58 0 85 19q16 11 29 29t28 49q8 13 17 12q11 0 11 -16t-10 -52.5t-21 -67.5q-7 -16 -17 -16q-70 0 -150 3q-27 1 -69.5 2t-98.5 1q-28 0 -57 -3q-57 -3 -66 -3q-26 0 -26 12zM224 708q-32 18 -49 44.5t-17 48.5q0 11 3 18t8 7q6 0 11.5 -4.5
t9 -9t5.5 -7.5q21 -25 45.5 -36t57.5 -11t57.5 11t45.5 36q2 3 7 9t9.5 9t9.5 3q7 0 9 -6t2 -19q0 -22 -17 -48.5t-49 -44.5t-74 -18t-74 18z" />
    <glyph glyph-name="ebreve" unicode="&#x115;" horiz-adv-x="400" 
d="M116 13q-42 28 -65.5 77.5t-23.5 113.5q0 58 27.5 107.5t74 79t100.5 29.5q62 0 102.5 -37t40.5 -93q0 -17 -7.5 -25t-23.5 -8h-207q-14 0 -19.5 -8t-5.5 -29q0 -44 19 -81t52.5 -58.5t73.5 -21.5q56 0 100 44q5 8 11 8q9 0 9 -11q0 -15 -14 -38q-21 -34 -60.5 -55.5
t-87.5 -21.5q-54 0 -96 28zM215 291q45 0 69 5q9 3 9 25q0 28 -23 47.5t-55 19.5q-21 0 -43 -13t-35.5 -33t-13.5 -39q0 -12 13 -12h79zM164.5 492q-25.5 17 -38 43t-12.5 51q0 12 5 19.5t13 7.5q13 0 17 -21q5 -23 24.5 -36.5t54.5 -13.5t54.5 13.5t24.5 36.5q4 21 17 21
q8 0 13 -7.5t5 -19.5q0 -25 -12.5 -51t-38 -43t-63.5 -17t-63.5 17z" />
    <glyph glyph-name="Edotaccent" unicode="&#x116;" horiz-adv-x="568" 
d="M31 7q0 13 29 19q38 8 54 23.5t16 48.5v452q0 34 -14 48.5t-51 22.5q-29 6 -29 20q0 6 7 9.5t19 3.5q35 0 87 -2q50 -2 80 -2q67 0 165 2q33 0 56.5 1.5t26.5 1.5q7 0 13 -3t7 -9l5 -30q11 -57 11 -82q0 -9 -4.5 -13t-9.5 -4q-9 0 -14 12q-1 4 -6.5 19.5t-10.5 25.5
t-10 16q-27 28 -68 28h-112q-14 0 -28 -10.5t-14 -25.5v-204q0 -10 6 -16t15 -6h94q27 0 38.5 12t19.5 41q7 20 19 20q5 0 9 -5t4 -13q-4 -56 -4 -73q0 -37 3 -79v-4q0 -16 -9 -16q-16 0 -24 29q-7 27 -17.5 39.5t-29.5 12.5h-93q-17 0 -24 -5.5t-7 -20.5v-191
q0 -34 14.5 -48t46.5 -14h79q58 0 85 19q16 11 29 29t28 49q8 13 17 12q11 0 11 -16t-10 -52.5t-21 -67.5q-7 -16 -17 -16q-70 0 -150 3q-27 1 -69.5 2t-98.5 1q-28 0 -57 -3q-57 -3 -66 -3q-26 0 -26 12zM253 712.5q-19 18.5 -19 43.5q0 26 19 44.5t45 18.5q28 0 47 -18.5
t19 -44.5t-19 -44t-47 -18q-26 0 -45 18.5z" />
    <glyph glyph-name="edotaccent" unicode="&#x117;" horiz-adv-x="400" 
d="M116 13q-42 28 -65.5 77.5t-23.5 113.5q0 58 27.5 107.5t74 79t100.5 29.5q62 0 102.5 -37t40.5 -93q0 -17 -7.5 -25t-23.5 -8h-207q-14 0 -19.5 -8t-5.5 -29q0 -44 19 -81t52.5 -58.5t73.5 -21.5q56 0 100 44q5 8 11 8q9 0 9 -11q0 -15 -14 -38q-21 -34 -60.5 -55.5
t-87.5 -21.5q-54 0 -96 28zM215 291q45 0 69 5q9 3 9 25q0 28 -23 47.5t-55 19.5q-21 0 -43 -13t-35.5 -33t-13.5 -39q0 -12 13 -12h79zM184.5 525.5q-17.5 17.5 -17.5 42.5q0 26 17.5 43.5t42.5 17.5q26 0 44 -17.5t18 -43.5q0 -25 -18 -42.5t-44 -17.5q-25 0 -42.5 17.5z
" />
    <glyph glyph-name="Eogonek" unicode="&#x118;" horiz-adv-x="545" 
d="M31 7q0 13 29 19q38 8 54 23.5t16 48.5v452q0 34 -14 48.5t-51 22.5q-29 6 -29 20q0 6 7 9.5t19 3.5q35 0 87 -2q50 -2 80 -2q67 0 165 2q33 0 56.5 1.5t26.5 1.5q7 0 13 -3t7 -9l5 -30q11 -57 11 -82q0 -9 -4.5 -13t-9.5 -4q-9 0 -14 12q-1 4 -6.5 19.5t-10.5 25.5
t-10 16q-27 28 -68 28h-112q-14 0 -28 -10.5t-14 -25.5v-204q0 -10 6 -16t15 -6h94q27 0 38.5 12t19.5 41q7 20 19 20q5 0 9 -5t4 -13q-4 -56 -4 -73q0 -37 3 -79v-4q0 -16 -9 -16q-16 0 -24 29q-7 27 -17.5 39.5t-29.5 12.5h-93q-17 0 -24 -5.5t-7 -20.5v-191
q0 -34 14.5 -48t46.5 -14h79q58 0 85 19q16 11 29 29t28 49q8 13 17 12q11 0 11 -16t-10 -52.5t-21 -67.5q-7 -16 -17 -16q-70 0 -150 3q-27 1 -69.5 2t-98.5 1q-28 0 -57 -3q-57 -3 -66 -3q-26 0 -26 12zM305 -255q-33 32 -33 81q0 61 59.5 112.5t111.5 79.5h31
q-3 -3 -31.5 -27t-52.5 -63.5t-24 -79.5q0 -25 18 -42t44 -17q30 0 52.5 17.5t24.5 19.5q4 2 7 2q9 0 9 -11q0 -22 -20.5 -46.5t-52 -41t-60.5 -16.5q-50 0 -83 32z" />
    <glyph glyph-name="eogonek" unicode="&#x119;" horiz-adv-x="395" 
d="M174 -259q-28 28 -28 80q0 47 30.5 91.5t72.5 79.5q-21 -6 -47 -6q-47 0 -87 26.5t-64 76.5t-24 115q0 57 27 107t74 80t104 30q64 0 101 -29t37 -75q0 -34 -14.5 -47t-51.5 -13h-171q-14 0 -20 -7t-6 -30q0 -41 18.5 -76t51 -55.5t73.5 -20.5q26 0 52.5 11t44.5 34
q7 7 12 7q6 0 8 -11q0 -5 -2 -15q-5 -18 -19 -38t-34 -37q-4 -5 -27.5 -31t-40 -63t-16.5 -75q0 -31 15.5 -47.5t41.5 -16.5q24 0 39 10l18 12q2 1 6 1q7 0 7 -9q0 -15 -14.5 -36t-39.5 -36t-53 -15q-46 0 -74 28zM215 291q44 0 69 5q4 1 7 10t3 19q0 27 -22 44t-53 17
q-24 0 -45.5 -13t-34.5 -31.5t-13 -34.5q0 -7 5 -11.5t14 -4.5h70z" />
    <glyph glyph-name="Ecaron" unicode="&#x11a;" horiz-adv-x="568" 
d="M31 7q0 13 29 19q38 8 54 23.5t16 48.5v452q0 34 -14 48.5t-51 22.5q-29 6 -29 20q0 6 7 9.5t19 3.5q35 0 87 -2q50 -2 80 -2q67 0 165 2q33 0 56.5 1.5t26.5 1.5q7 0 13 -3t7 -9l5 -30q11 -57 11 -82q0 -9 -4.5 -13t-9.5 -4q-9 0 -14 12q-1 4 -6.5 19.5t-10.5 25.5
t-10 16q-27 28 -68 28h-112q-14 0 -28 -10.5t-14 -25.5v-204q0 -10 6 -16t15 -6h94q27 0 38.5 12t19.5 41q7 20 19 20q5 0 9 -5t4 -13q-4 -56 -4 -73q0 -37 3 -79v-4q0 -16 -9 -16q-16 0 -24 29q-7 27 -17.5 39.5t-29.5 12.5h-93q-17 0 -24 -5.5t-7 -20.5v-191
q0 -34 14.5 -48t46.5 -14h79q58 0 85 19q16 11 29 29t28 49q8 13 17 12q11 0 11 -16t-10 -52.5t-21 -67.5q-7 -16 -17 -16q-70 0 -150 3q-27 1 -69.5 2t-98.5 1q-28 0 -57 -3q-57 -3 -66 -3q-26 0 -26 12zM219 811q46 -20 69 -33q8 -4 11 -4t11 4q23 13 69 33.5t56 20.5
q15 0 15 -12q0 -8 -6 -13l-101 -83q-19 -16 -26 -20.5t-18 -4.5t-18 4.5t-26 20.5l-101 83q-7 6 -7 13q0 11 16 11q10 0 56 -20z" />
    <glyph glyph-name="ecaron" unicode="&#x11b;" horiz-adv-x="400" 
d="M116 13q-42 28 -65.5 77.5t-23.5 113.5q0 58 27.5 107.5t74 79t100.5 29.5q62 0 102.5 -37t40.5 -93q0 -17 -7.5 -25t-23.5 -8h-207q-14 0 -19.5 -8t-5.5 -29q0 -44 19 -81t52.5 -58.5t73.5 -21.5q56 0 100 44q5 8 11 8q9 0 9 -11q0 -15 -14 -38q-21 -34 -60.5 -55.5
t-87.5 -21.5q-54 0 -96 28zM215 291q45 0 69 5q9 3 9 25q0 28 -23 47.5t-55 19.5q-21 0 -43 -13t-35.5 -33t-13.5 -39q0 -12 13 -12h79zM202 480q-20 32 -50 85.5t-35 68.5l-2 12q0 10 11 10q6 0 15.5 -8t18.5 -17l63 -79q3 -4 4.5 -4t4.5 4l30 37q9 11 17.5 22t16.5 20
q23 25 33 25q11 0 11 -12q0 -2 -2 -10q-8 -26 -85 -154q-14 -25 -26 -25q-11 0 -25 25z" />
    <glyph glyph-name="Gcircumflex" unicode="&#x11c;" horiz-adv-x="726" 
d="M214 28.5q-80 42.5 -127.5 117t-47.5 166.5q0 95 49 175.5t134.5 128t188.5 47.5q37 0 106.5 -11.5t93.5 -22.5q6 -2 8.5 -5.5t4.5 -10.5q10 -84 10 -110q0 -8 -4.5 -14t-10.5 -6q-10 0 -15 6t-10 19q-15 36 -37 61q-17 19 -54 35t-93 16q-73 0 -129.5 -40t-87 -106.5
t-30.5 -143.5q0 -91 32 -159.5t86.5 -105t120.5 -36.5q68 0 103 32q12 11 20 30.5t8 42.5q0 20 1 33l1 34q0 25 -11 32q-12 11 -39.5 18.5t-46.5 8.5q-7 1 -14.5 6.5t-7.5 12.5q0 6 7.5 11t13.5 5q24 0 66 -2q44 -2 70 -2q17 0 49 2t52 2q6 0 12.5 -4t6.5 -12q0 -7 -6.5 -12
t-13.5 -7q-23 -7 -33 -17.5t-13 -31.5q-5 -36 -5 -75v-29q0 -6 3.5 -10.5t4.5 -6.5q2 -3 7 -9t5 -10q0 -17 -16 -19q-9 -2 -28 -12q-48 -23 -98 -38.5t-113 -15.5q-93 0 -173 42.5zM261 706q0 7 7 13l101 87q17 15 25 19.5t19 4.5t19 -4.5t25 -19.5l101 -87q6 -5 6 -13
q0 -12 -15 -12q-10 0 -56 20.5t-69 33.5q-5 4 -11 4t-11 -4q-23 -13 -69 -33t-56 -20q-16 0 -16 11z" />
    <glyph glyph-name="gcircumflex" unicode="&#x11d;" horiz-adv-x="458" 
d="M460 391q4 -5 4 -13q0 -5 -3 -12.5t-8 -12.5q-6 -6 -10 -6h-27q-26 0 -31 -8q-6 -12 -6 -46q0 -51 -23.5 -94.5t-63 -69.5t-85.5 -26q-28 0 -58 11q-15 -8 -24.5 -18.5t-9.5 -18.5q0 -19 32 -30t102 -16q98 -6 144 -31t46 -71q0 -52 -35 -103t-90.5 -83.5t-111.5 -32.5
q-89 0 -140.5 31.5t-51.5 86.5q0 28 8 45.5t27 33.5l75 58q-43 11 -62 30t-19 49q0 21 24 38q21 16 35 27t20 19q-36 22 -58.5 56.5t-22.5 74.5q0 47 25.5 84t68 58t90.5 21q28 0 72 -12q20 -6 30 -8q34 -9 72 -9q11 0 33 2l22 1q6 0 10 -5zM273 178q23 37 23 95
q0 47 -26 81t-61 34q-33 0 -57.5 -35t-24.5 -82q0 -54 26 -92t62 -38q35 0 58 37zM325 -70q-32 15 -111 21l-52 6q-38 -25 -54.5 -50t-16.5 -58q0 -41 35 -68t87 -27q63 0 96 27q23 18 35.5 45.5t12.5 58.5q0 30 -32 45zM250 631q77 -128 85 -154q2 -8 2 -10q0 -12 -11 -12
q-10 0 -33 25q-8 9 -16.5 20t-17.5 22l-30 37q-3 4 -4.5 4t-4.5 -4l-63 -79q-9 -9 -18.5 -17t-15.5 -8q-11 0 -11 10l2 12q5 15 35 68.5t50 85.5q14 25 25 25q12 0 26 -25z" />
    <glyph glyph-name="Gbreve" unicode="&#x11e;" horiz-adv-x="726" 
d="M214 28.5q-80 42.5 -127.5 117t-47.5 166.5q0 95 49 175.5t134.5 128t188.5 47.5q37 0 106.5 -11.5t93.5 -22.5q6 -2 8.5 -5.5t4.5 -10.5q10 -84 10 -110q0 -8 -4.5 -14t-10.5 -6q-10 0 -15 6t-10 19q-15 36 -37 61q-17 19 -54 35t-93 16q-73 0 -129.5 -40t-87 -106.5
t-30.5 -143.5q0 -91 32 -159.5t86.5 -105t120.5 -36.5q68 0 103 32q12 11 20 30.5t8 42.5q0 20 1 33l1 34q0 25 -11 32q-12 11 -39.5 18.5t-46.5 8.5q-7 1 -14.5 6.5t-7.5 12.5q0 6 7.5 11t13.5 5q24 0 66 -2q44 -2 70 -2q17 0 49 2t52 2q6 0 12.5 -4t6.5 -12q0 -7 -6.5 -12
t-13.5 -7q-23 -7 -33 -17.5t-13 -31.5q-5 -36 -5 -75v-29q0 -6 3.5 -10.5t4.5 -6.5q2 -3 7 -9t5 -10q0 -17 -16 -19q-9 -2 -28 -12q-48 -23 -98 -38.5t-113 -15.5q-93 0 -173 42.5zM339 708q-32 18 -49 44.5t-17 48.5q0 11 3 18t8 7q6 0 11.5 -4.5t9 -9t5.5 -7.5
q21 -25 45.5 -36t57.5 -11t57.5 11t45.5 36q2 3 7 9t9.5 9t9.5 3q7 0 9 -6t2 -19q0 -22 -17 -48.5t-49 -44.5t-74 -18t-74 18z" />
    <glyph glyph-name="gbreve" unicode="&#x11f;" horiz-adv-x="458" 
d="M460 391q4 -5 4 -13q0 -5 -3 -12.5t-8 -12.5q-6 -6 -10 -6h-27q-26 0 -31 -8q-6 -12 -6 -46q0 -51 -23.5 -94.5t-63 -69.5t-85.5 -26q-28 0 -58 11q-15 -8 -24.5 -18.5t-9.5 -18.5q0 -19 32 -30t102 -16q98 -6 144 -31t46 -71q0 -52 -35 -103t-90.5 -83.5t-111.5 -32.5
q-89 0 -140.5 31.5t-51.5 86.5q0 28 8 45.5t27 33.5l75 58q-43 11 -62 30t-19 49q0 21 24 38q21 16 35 27t20 19q-36 22 -58.5 56.5t-22.5 74.5q0 47 25.5 84t68 58t90.5 21q28 0 72 -12q20 -6 30 -8q34 -9 72 -9q11 0 33 2l22 1q6 0 10 -5zM273 178q23 37 23 95
q0 47 -26 81t-61 34q-33 0 -57.5 -35t-24.5 -82q0 -54 26 -92t62 -38q35 0 58 37zM325 -70q-32 15 -111 21l-52 6q-38 -25 -54.5 -50t-16.5 -58q0 -41 35 -68t87 -27q63 0 96 27q23 18 35.5 45.5t12.5 58.5q0 30 -32 45zM161.5 492q-25.5 17 -38 43t-12.5 51q0 12 5 19.5
t13 7.5q13 0 17 -21q5 -23 24.5 -36.5t54.5 -13.5t54.5 13.5t24.5 36.5q4 21 17 21q8 0 13 -7.5t5 -19.5q0 -25 -12.5 -51t-38 -43t-63.5 -17t-63.5 17z" />
    <glyph glyph-name="Gdotaccent" unicode="&#x120;" horiz-adv-x="726" 
d="M214 28.5q-80 42.5 -127.5 117t-47.5 166.5q0 95 49 175.5t134.5 128t188.5 47.5q37 0 106.5 -11.5t93.5 -22.5q6 -2 8.5 -5.5t4.5 -10.5q10 -84 10 -110q0 -8 -4.5 -14t-10.5 -6q-10 0 -15 6t-10 19q-15 36 -37 61q-17 19 -54 35t-93 16q-73 0 -129.5 -40t-87 -106.5
t-30.5 -143.5q0 -91 32 -159.5t86.5 -105t120.5 -36.5q68 0 103 32q12 11 20 30.5t8 42.5q0 20 1 33l1 34q0 25 -11 32q-12 11 -39.5 18.5t-46.5 8.5q-7 1 -14.5 6.5t-7.5 12.5q0 6 7.5 11t13.5 5q24 0 66 -2q44 -2 70 -2q17 0 49 2t52 2q6 0 12.5 -4t6.5 -12q0 -7 -6.5 -12
t-13.5 -7q-23 -7 -33 -17.5t-13 -31.5q-5 -36 -5 -75v-29q0 -6 3.5 -10.5t4.5 -6.5q2 -3 7 -9t5 -10q0 -17 -16 -19q-9 -2 -28 -12q-48 -23 -98 -38.5t-113 -15.5q-93 0 -173 42.5zM368 712.5q-19 18.5 -19 43.5q0 26 19 44.5t45 18.5q28 0 47 -18.5t19 -44.5t-19 -44
t-47 -18q-26 0 -45 18.5z" />
    <glyph glyph-name="gdotaccent" unicode="&#x121;" horiz-adv-x="458" 
d="M460 391q4 -5 4 -13q0 -5 -3 -12.5t-8 -12.5q-6 -6 -10 -6h-27q-26 0 -31 -8q-6 -12 -6 -46q0 -51 -23.5 -94.5t-63 -69.5t-85.5 -26q-28 0 -58 11q-15 -8 -24.5 -18.5t-9.5 -18.5q0 -19 32 -30t102 -16q98 -6 144 -31t46 -71q0 -52 -35 -103t-90.5 -83.5t-111.5 -32.5
q-89 0 -140.5 31.5t-51.5 86.5q0 28 8 45.5t27 33.5l75 58q-43 11 -62 30t-19 49q0 21 24 38q21 16 35 27t20 19q-36 22 -58.5 56.5t-22.5 74.5q0 47 25.5 84t68 58t90.5 21q28 0 72 -12q20 -6 30 -8q34 -9 72 -9q11 0 33 2l22 1q6 0 10 -5zM273 178q23 37 23 95
q0 47 -26 81t-61 34q-33 0 -57.5 -35t-24.5 -82q0 -54 26 -92t62 -38q35 0 58 37zM325 -70q-32 15 -111 21l-52 6q-38 -25 -54.5 -50t-16.5 -58q0 -41 35 -68t87 -27q63 0 96 27q23 18 35.5 45.5t12.5 58.5q0 30 -32 45zM181.5 525.5q-17.5 17.5 -17.5 42.5q0 26 17.5 43.5
t42.5 17.5q26 0 44 -17.5t18 -43.5q0 -25 -18 -42.5t-44 -17.5q-25 0 -42.5 17.5z" />
    <glyph glyph-name="uni0122" unicode="&#x122;" horiz-adv-x="726" 
d="M214 28.5q-80 42.5 -127.5 117t-47.5 166.5q0 95 49 175.5t134.5 128t188.5 47.5q37 0 106.5 -11.5t93.5 -22.5q6 -2 8.5 -5.5t4.5 -10.5q10 -84 10 -110q0 -8 -4.5 -14t-10.5 -6q-10 0 -15 6t-10 19q-15 36 -37 61q-17 19 -54 35t-93 16q-73 0 -129.5 -40t-87 -106.5
t-30.5 -143.5q0 -91 32 -159.5t86.5 -105t120.5 -36.5q68 0 103 32q12 11 20 30.5t8 42.5q0 20 1 33l1 34q0 25 -11 32q-12 11 -39.5 18.5t-46.5 8.5q-7 1 -14.5 6.5t-7.5 12.5q0 6 7.5 11t13.5 5q24 0 66 -2q44 -2 70 -2q17 0 49 2t52 2q6 0 12.5 -4t6.5 -12q0 -7 -6.5 -12
t-13.5 -7q-23 -7 -33 -17.5t-13 -31.5q-5 -36 -5 -75v-29q0 -6 3.5 -10.5t4.5 -6.5q2 -3 7 -9t5 -10q0 -17 -16 -19q-9 -2 -28 -12q-48 -23 -98 -38.5t-113 -15.5q-93 0 -173 42.5zM340 -270q0 9 15 14q25 9 39.5 28t14.5 41q0 20 -10 29t-34 15q-19 5 -28.5 15.5t-9.5 30.5
q0 18 14 30t37 12q39 0 65 -28t26 -73q0 -37 -20 -65t-47 -43.5t-46 -15.5q-16 0 -16 10z" />
    <glyph glyph-name="uni0123" unicode="&#x123;" horiz-adv-x="458" 
d="M460 391q4 -5 4 -13q0 -5 -3 -12.5t-8 -12.5q-6 -6 -10 -6h-27q-26 0 -31 -8q-6 -12 -6 -46q0 -51 -23.5 -94.5t-63 -69.5t-85.5 -26q-28 0 -58 11q-15 -8 -24.5 -18.5t-9.5 -18.5q0 -19 32 -30t102 -16q98 -6 144 -31t46 -71q0 -52 -35 -103t-90.5 -83.5t-111.5 -32.5
q-89 0 -140.5 31.5t-51.5 86.5q0 28 8 45.5t27 33.5l75 58q-43 11 -62 30t-19 49q0 21 24 38q21 16 35 27t20 19q-36 22 -58.5 56.5t-22.5 74.5q0 47 25.5 84t68 58t90.5 21q28 0 72 -12q20 -6 30 -8q34 -9 72 -9q11 0 33 2l22 1q6 0 10 -5zM273 178q23 37 23 95
q0 47 -26 81t-61 34q-33 0 -57.5 -35t-24.5 -82q0 -54 26 -92t62 -38q35 0 58 37zM325 -70q-32 15 -111 21l-52 6q-38 -25 -54.5 -50t-16.5 -58q0 -41 35 -68t87 -27q63 0 96 27q23 18 35.5 45.5t12.5 58.5q0 30 -32 45zM168 496q-25 28 -25 71q0 35 21.5 63.5t53 45.5
t59.5 17q10 0 15 -3.5t5 -8.5q0 -4 -4 -8t-11 -5q-33 -7 -54.5 -26.5t-21.5 -43.5q0 -17 9.5 -30.5t23.5 -14.5q20 -2 32.5 -14.5t12.5 -31.5q0 -16 -14.5 -27.5t-38.5 -11.5q-38 0 -63 28z" />
    <glyph glyph-name="Hcircumflex" unicode="&#x124;" horiz-adv-x="807" 
d="M38 -0.5q-7 3.5 -7 9.5q0 7 6 11t22 7q36 7 48.5 21.5t12.5 49.5v453q0 35 -10 49t-45 21q-15 3 -22 7.5t-7 11.5q0 6 6.5 10t18.5 4q29 0 65 -2q32 -2 50 -2l54 1q38 2 67 2q25 0 25 -13q0 -7 -7 -11.5t-22 -7.5q-38 -8 -52.5 -24t-14.5 -46v-191q0 -11 14 -11h334
q9 0 9 13v189q0 30 -14.5 46t-51.5 24q-15 3 -22 7.5t-7 11.5q0 13 25 13q27 0 69 -2l58 -1q17 0 45 2q34 2 62 2q12 0 19 -4t7 -10q0 -7 -7 -11.5t-22 -7.5q-35 -7 -45 -22t-10 -47v-453q0 -37 10.5 -51t46.5 -21q16 -3 22 -7t6 -11q0 -6 -7.5 -9.5t-18.5 -3.5q-35 0 -64 3
q-32 2 -51 2q-18 0 -54 -2q-30 -3 -67 -3q-11 0 -18 3.5t-7 9.5q0 8 6 11.5t22 6.5q35 8 51.5 24t16.5 46v193q0 15 -8 15h-341q-5 0 -6.5 -2.5t-1.5 -9.5v-189q0 -30 19.5 -49.5t55.5 -27.5q16 -3 22.5 -6.5t6.5 -11.5q0 -6 -7.5 -9.5t-18.5 -3.5q-36 0 -68 3q-40 2 -60 2
q-19 0 -55 -2q-28 -3 -65 -3q-11 0 -18 3.5zM252 706q0 7 7 13l101 87q17 15 25 19.5t19 4.5t19 -4.5t25 -19.5l101 -87q6 -5 6 -13q0 -12 -15 -12q-10 0 -56 20.5t-69 33.5q-5 4 -11 4t-11 -4q-23 -13 -69 -33t-56 -20q-16 0 -16 11z" />
    <glyph glyph-name="hcircumflex" unicode="&#x125;" horiz-adv-x="531" 
d="M18 9q0 6 5 10t18 8q20 6 30.5 13.5t10.5 26.5v493q0 30 -9 49t-33 23q-9 2 -9 15q0 10 8 13q25 6 61.5 19t64.5 24q6 2 9 2q8 0 8 -9q0 -5 -4 -28.5t-4 -83.5v-194q0 -23 6 -34q35 27 71.5 45.5t78.5 18.5q51 0 84.5 -38.5t33.5 -99.5v-213q0 -18 10.5 -27t29.5 -15
q12 -4 17 -8t5 -10q0 -12 -21 -12q-28 0 -46 3q-22 2 -40 2t-40 -2q-16 -3 -45 -3q-21 0 -21 12q0 7 5 10.5t17 7.5q18 6 28 15t10 28v202q0 34 -26.5 59.5t-56.5 25.5q-20 0 -42 -5.5t-36 -16.5q-13 -10 -17.5 -22t-4.5 -37v-209q1 -18 10 -26t27 -14q22 -7 22 -18
q0 -12 -20 -12q-28 0 -46 3q-24 2 -40 2q-17 0 -41 -2q-21 -3 -48 -3q-20 0 -20 12zM-18.5 756q-4.5 3 -4.5 7q0 7 8 14l88 71q4 3 13 10t16 10.5t13 3.5q7 0 16 -5.5t15.5 -10.5t10.5 -8l88 -71q7 -5 7 -13q0 -5 -4 -8t-11 -3q-31 0 -111 40q-6 3 -10 3q-6 0 -12 -3
q-86 -40 -111 -40q-7 0 -11.5 3z" />
    <glyph glyph-name="Hbar" unicode="&#x126;" horiz-adv-x="807" 
d="M768 20q6 -4 6 -11q0 -6 -7.5 -9.5t-18.5 -3.5q-35 0 -64 3q-32 2 -51 2q-18 0 -54 -2q-30 -3 -67 -3q-11 0 -18 3.5t-7 9.5q0 8 6 11.5t22 6.5q35 8 51.5 24t16.5 46v193q0 15 -8 15h-341q-5 0 -6.5 -2.5t-1.5 -9.5v-189q0 -30 19.5 -49.5t55.5 -27.5q16 -3 22.5 -6.5
t6.5 -11.5q0 -6 -7.5 -9.5t-18.5 -3.5q-36 0 -68 3q-40 2 -60 2q-19 0 -55 -2q-28 -3 -65 -3q-11 0 -18 3.5t-7 9.5q0 7 6 11t22 7q36 7 48.5 21.5t12.5 49.5v355h-59q-7 0 -13 7t-6 15q0 10 7.5 16t18.5 6h52v54q0 35 -10 49t-45 21q-15 3 -22 7.5t-7 11.5q0 6 6.5 10
t18.5 4q29 0 65 -2q32 -2 50 -2l54 1q38 2 67 2q25 0 25 -13q0 -7 -7 -11.5t-22 -7.5q-38 -8 -52.5 -24t-14.5 -46v-54h357v54q0 30 -14.5 46t-51.5 24q-15 3 -22 7.5t-7 11.5q0 13 25 13q27 0 69 -2l58 -1q17 0 45 2q34 2 62 2q12 0 19 -4t7 -10q0 -7 -7 -11.5t-22 -7.5
q-35 -7 -45 -22t-10 -47v-55h60q7 0 11.5 -4t4.5 -10q0 -9 -11 -19.5t-23 -10.5h-42v-354q0 -37 10.5 -51t46.5 -21q16 -3 22 -7zM583 362v91h-357v-93q0 -11 14 -11h334q9 0 9 13z" />
    <glyph glyph-name="hbar" unicode="&#x127;" horiz-adv-x="534" 
d="M508 19q5 -4 5 -10q0 -12 -20 -12q-29 0 -47 3q-22 2 -40 2q-19 0 -39 -2q-16 -3 -45 -3q-22 0 -22 12q0 7 5 10t17 8q18 5 28 14.5t10 28.5v185q0 35 -26 60.5t-57 25.5q-19 0 -40 -5t-34 -15q-15 -11 -20 -25t-5 -43v-186q0 -18 9.5 -26t27.5 -14q21 -7 21 -18
q0 -12 -19 -12q-28 0 -46 3q-24 2 -40 2q-17 0 -41 -2q-21 -3 -48 -3q-20 0 -20 12q0 7 5 10.5t18 7.5q20 6 30 13.5t11 26.5v441h-51q-8 0 -12.5 7t-4.5 15t8 14.5t18 6.5h42v9q0 64 -42 72q-10 1 -10 15q0 10 9 13q51 14 126 43q6 2 8 2q8 0 8 -9q0 -5 -3.5 -29t-4.5 -83
v-33h140q6 0 11.5 -4t5.5 -9l-1 -4q-11 -26 -34 -26h-122v-135q0 -24 7 -34q84 65 152 65q50 0 83 -39.5t33 -98.5v-197q0 -18 10.5 -27.5t28.5 -14.5q12 -4 17 -8z" />
    <glyph glyph-name="Itilde" unicode="&#x128;" horiz-adv-x="348" 
d="M18 8q0 7 7 11.5t22 7.5q39 7 56.5 22.5t17.5 48.5v452q0 34 -14 48.5t-52 22.5q-29 6 -29 20q0 13 25 13q27 0 69 -2q38 -2 58 -2l56 1q38 2 66 2q26 0 26 -12q0 -14 -29 -20q-40 -8 -55 -23t-15 -48v-452q0 -32 17.5 -47t57.5 -24q15 -3 22 -7.5t7 -11.5q0 -12 -25 -12
q-36 0 -68 3q-40 2 -60 2q-22 0 -64 -2q-33 -3 -70 -3q-26 0 -26 12zM43 697.5q-6 5.5 -6 10.5q0 6 16 29t34.5 42t29.5 19q28 0 74 -4l21 -1q32 -2 50 -2q20 0 37 19q6 6 12 13t8 7q7 0 14 -5.5t7 -11.5q0 -4 -7 -12t-9 -10q-13 -15 -44 -57q-5 -7 -14.5 -10.5t-15.5 -3.5
t-56 4q-82 5 -88 5q-7 0 -16.5 -4.5t-15.5 -10.5q-7 -7 -12.5 -14.5t-7.5 -7.5q-5 0 -11 5.5z" />
    <glyph glyph-name="itilde" unicode="&#x129;" horiz-adv-x="263" 
d="M23 9q0 11 21 17q25 7 35 14.5t10 23.5v216q0 64 -45 71q-10 1 -10 15q0 12 9 13q65 14 123 53q12 7 16 7q8 0 8 -8q0 -6 -4 -46q-6 -60 -6 -93v-228q0 -15 10.5 -23.5t34.5 -14.5q21 -6 21 -17q0 -12 -18 -12q-26 0 -49 3q-28 2 -45 2t-43 -2q-21 -3 -49 -3
q-19 0 -19 12zM0.5 465.5q-5.5 4.5 -5.5 11.5q0 6 19.5 31.5t41.5 47t33 21.5q9 0 29 -2l28 -3q50 -4 60 -4q21 0 38 19l16 18t10 9q7 0 14 -5.5t7 -12.5q0 -3 -9 -13t-13 -15q-5 -6 -30 -38l-16 -21q-5 -7 -14.5 -10.5t-15.5 -3.5q-15 0 -45 3q-67 5 -78 5q-16 0 -33 -19
q-3 -3 -12 -13t-12 -10q-7 0 -12.5 4.5z" />
    <glyph glyph-name="Imacron" unicode="&#x12a;" horiz-adv-x="348" 
d="M18 8q0 7 7 11.5t22 7.5q39 7 56.5 22.5t17.5 48.5v452q0 34 -14 48.5t-52 22.5q-29 6 -29 20q0 13 25 13q27 0 69 -2q38 -2 58 -2l56 1q38 2 66 2q26 0 26 -12q0 -14 -29 -20q-40 -8 -55 -23t-15 -48v-452q0 -32 17.5 -47t57.5 -24q15 -3 22 -7.5t7 -11.5q0 -12 -25 -12
q-36 0 -68 3q-40 2 -60 2q-22 0 -64 -2q-33 -3 -70 -3q-26 0 -26 12zM28.5 725.5q-4.5 4.5 -4.5 9.5q0 16 7.5 32.5t20.5 16.5h265q6 0 10.5 -4.5t4.5 -9.5q0 -18 -10.5 -33.5t-23.5 -15.5h-258q-7 0 -11.5 4.5z" />
    <glyph glyph-name="imacron" unicode="&#x12b;" horiz-adv-x="263" 
d="M23 9q0 11 21 17q25 7 35 14.5t10 23.5v216q0 64 -45 71q-10 1 -10 15q0 12 9 13q65 14 123 53q12 7 16 7q8 0 8 -8q0 -6 -4 -46q-6 -60 -6 -93v-228q0 -15 10.5 -23.5t34.5 -14.5q21 -6 21 -17q0 -12 -18 -12q-26 0 -49 3q-28 2 -45 2t-43 -2q-21 -3 -49 -3
q-19 0 -19 12zM4.5 507.5q-4.5 4.5 -4.5 9.5q0 16 8 33t21 17h222q6 0 10.5 -4.5t4.5 -9.5q0 -20 -9.5 -35t-24.5 -15h-216q-7 0 -11.5 4.5z" />
    <glyph glyph-name="Ibreve" unicode="&#x12c;" horiz-adv-x="348" 
d="M18 8q0 7 7 11.5t22 7.5q39 7 56.5 22.5t17.5 48.5v452q0 34 -14 48.5t-52 22.5q-29 6 -29 20q0 13 25 13q27 0 69 -2q38 -2 58 -2l56 1q38 2 66 2q26 0 26 -12q0 -14 -29 -20q-40 -8 -55 -23t-15 -48v-452q0 -32 17.5 -47t57.5 -24q15 -3 22 -7.5t7 -11.5q0 -12 -25 -12
q-36 0 -68 3q-40 2 -60 2q-22 0 -64 -2q-33 -3 -70 -3q-26 0 -26 12zM101 708q-32 18 -49 44.5t-17 48.5q0 11 3 18t8 7q6 0 11.5 -4.5t9 -9t5.5 -7.5q21 -25 45.5 -36t57.5 -11t57.5 11t45.5 36q2 3 7 9t9.5 9t9.5 3q7 0 9 -6t2 -19q0 -22 -17 -48.5t-49 -44.5t-74 -18
t-74 18z" />
    <glyph glyph-name="ibreve" unicode="&#x12d;" horiz-adv-x="263" 
d="M23 9q0 11 21 17q25 7 35 14.5t10 23.5v216q0 64 -45 71q-10 1 -10 15q0 12 9 13q65 14 123 53q12 7 16 7q8 0 8 -8q0 -6 -4 -46q-6 -60 -6 -93v-228q0 -15 10.5 -23.5t34.5 -14.5q21 -6 21 -17q0 -12 -18 -12q-26 0 -49 3q-28 2 -45 2t-43 -2q-21 -3 -49 -3
q-19 0 -19 12zM69.5 492q-25.5 17 -38 43t-12.5 51q0 12 5 19.5t13 7.5q13 0 17 -21q5 -23 24.5 -36.5t54.5 -13.5t54.5 13.5t24.5 36.5q4 21 17 21q8 0 13 -7.5t5 -19.5q0 -25 -12.5 -51t-38 -43t-63.5 -17t-63.5 17z" />
    <glyph glyph-name="Iogonek" unicode="&#x12e;" horiz-adv-x="348" 
d="M18 8q0 7 7 11.5t22 7.5q39 7 56.5 22.5t17.5 48.5v452q0 34 -14 48.5t-52 22.5q-29 6 -29 20q0 13 25 13q27 0 69 -2q38 -2 58 -2l56 1q38 2 66 2q26 0 26 -12q0 -14 -29 -20q-40 -8 -55 -23t-15 -48v-452q0 -32 17.5 -47t57.5 -24q15 -3 22 -7.5t7 -11.5q0 -12 -25 -12
q-36 0 -68 3q-40 2 -60 2q-22 0 -64 -2q-33 -3 -70 -3q-26 0 -26 12zM107 -255q-33 32 -33 81q0 61 59.5 112.5t111.5 79.5h31q-3 -3 -31.5 -27t-52.5 -63.5t-24 -79.5q0 -25 18 -42t44 -17q30 0 52.5 17.5t24.5 19.5q4 2 7 2q9 0 9 -11q0 -22 -20.5 -46.5t-52 -41
t-60.5 -16.5q-50 0 -83 32z" />
    <glyph glyph-name="iogonek" unicode="&#x12f;" horiz-adv-x="263" 
d="M23 9q0 11 21 17q25 7 35 14.5t10 23.5v216q0 64 -45 71q-10 1 -10 15q0 12 9 13q65 14 123 53q12 7 16 7q8 0 8 -8q0 -6 -4 -46q-6 -60 -6 -93v-228q0 -15 10.5 -23.5t34.5 -14.5q21 -6 21 -17q0 -12 -18 -12q-26 0 -49 3q-28 2 -45 2t-43 -2q-21 -3 -49 -3
q-19 0 -19 12zM89.5 525.5q-17.5 17.5 -17.5 42.5q0 26 17.5 43.5t42.5 17.5q26 0 44 -17.5t18 -43.5q0 -25 -18 -42.5t-44 -17.5q-25 0 -42.5 17.5zM55.5 -259q-27.5 28 -27.5 80q0 44 28.5 85.5t62 70t55.5 41.5h33q-48 -45 -73 -81.5t-25 -86.5q0 -31 16 -47.5t42 -16.5
q24 0 39 10l18 12q2 1 6 1q7 0 7 -9q0 -15 -14.5 -36t-39.5 -36t-53 -15q-47 0 -74.5 28z" />
    <glyph glyph-name="Idotaccent" unicode="&#x130;" horiz-adv-x="348" 
d="M18 8q0 7 7 11.5t22 7.5q39 7 56.5 22.5t17.5 48.5v452q0 34 -14 48.5t-52 22.5q-29 6 -29 20q0 13 25 13q27 0 69 -2q38 -2 58 -2l56 1q38 2 66 2q26 0 26 -12q0 -14 -29 -20q-40 -8 -55 -23t-15 -48v-452q0 -32 17.5 -47t57.5 -24q15 -3 22 -7.5t7 -11.5q0 -12 -25 -12
q-36 0 -68 3q-40 2 -60 2q-22 0 -64 -2q-33 -3 -70 -3q-26 0 -26 12zM130 712.5q-19 18.5 -19 43.5q0 26 19 44.5t45 18.5q28 0 47 -18.5t19 -44.5t-19 -44t-47 -18q-26 0 -45 18.5z" />
    <glyph glyph-name="dotlessi" unicode="&#x131;" horiz-adv-x="263" 
d="M23 9q0 11 21 17q25 7 35 14.5t10 23.5v216q0 64 -45 71q-10 1 -10 15q0 12 9 13q65 14 123 53q12 7 16 7q8 0 8 -8q0 -6 -4 -46q-6 -60 -6 -93v-228q0 -15 10.5 -23.5t34.5 -14.5q21 -6 21 -17q0 -12 -18 -12q-26 0 -49 3q-28 2 -45 2t-43 -2q-21 -3 -49 -3
q-19 0 -19 12z" />
    <glyph glyph-name="IJ" unicode="&#x132;" horiz-adv-x="698" 
d="M18 8q0 7 7 11.5t22 7.5q39 7 56.5 22.5t17.5 48.5v452q0 34 -14 48.5t-52 22.5q-29 6 -29 20q0 13 25 13q27 0 69 -2q38 -2 58 -2l56 1q38 2 66 2q26 0 26 -12q0 -14 -29 -20q-40 -8 -55 -23t-15 -48v-452q0 -32 17.5 -47t57.5 -24q15 -3 22 -7.5t7 -11.5q0 -12 -25 -12
q-36 0 -68 3q-40 2 -60 2q-22 0 -64 -2q-33 -3 -70 -3q-26 0 -26 12zM303.5 -186.5q-29.5 13.5 -29.5 38.5q0 18 15 34.5t29 16.5q24 0 45 -24q17 -22 26.5 -30t21.5 -8q65 0 65 161v549q0 33 -14.5 47.5t-51.5 22.5q-29 6 -29 20q0 13 26 13q28 0 68 -2q38 -2 58 -2l47 1
q36 2 65 2q25 0 25 -12q0 -14 -29 -20q-37 -8 -48 -22t-11 -48v-490q0 -51 -23.5 -101.5t-56.5 -91.5q-54 -68 -112 -68q-57 0 -86.5 13.5z" />
    <glyph glyph-name="ij" unicode="&#x133;" horiz-adv-x="493" 
d="M23 9q0 11 21 17q25 7 35 14.5t10 23.5v216q0 64 -45 71q-10 1 -10 15q0 12 9 13q65 14 123 53q12 7 16 7q8 0 8 -8q0 -6 -4 -46q-6 -60 -6 -93v-228q0 -15 10.5 -23.5t34.5 -14.5q21 -6 21 -17q0 -12 -18 -12q-26 0 -49 3q-28 2 -45 2t-43 -2q-21 -3 -49 -3
q-19 0 -19 12zM89.5 525.5q-17.5 17.5 -17.5 42.5q0 26 17.5 43.5t42.5 17.5q26 0 44 -17.5t18 -43.5q0 -25 -18 -42.5t-44 -17.5q-25 0 -42.5 17.5zM235.5 -284q-8.5 3 -8.5 9t4.5 11t9.5 7q19 7 34.5 20.5t28.5 40.5q18 39 25 112.5t7 146.5v217q0 63 -46 71
q-4 1 -6.5 5.5t-2.5 9.5t2.5 8.5t6.5 4.5q36 8 63 21.5t58 31.5l16 7q9 0 9 -8q-9 -90 -9 -152l1 -188q0 -67 -6.5 -128.5t-26.5 -114.5q-21 -52 -63.5 -93.5t-76.5 -41.5q-11 0 -19.5 3zM332.5 525.5q-17.5 17.5 -17.5 42.5q0 26 17.5 43.5t42.5 17.5q26 0 44 -17.5
t18 -43.5q0 -25 -18 -42.5t-44 -17.5q-25 0 -42.5 17.5z" />
    <glyph glyph-name="Jcircumflex" unicode="&#x134;" horiz-adv-x="350" 
d="M-44.5 -186.5q-29.5 13.5 -29.5 38.5q0 18 15 34.5t29 16.5q24 0 45 -24q17 -22 26.5 -30t21.5 -8q65 0 65 161v549q0 33 -14.5 47.5t-51.5 22.5q-29 6 -29 20q0 13 26 13q28 0 68 -2q38 -2 58 -2l47 1q36 2 65 2q25 0 25 -12q0 -14 -29 -20q-37 -8 -48 -22t-11 -48v-490
q0 -51 -23.5 -101.5t-56.5 -91.5q-54 -68 -112 -68q-57 0 -86.5 13.5zM24 706q0 7 7 13l101 87q17 15 25 19.5t19 4.5t19 -4.5t25 -19.5l101 -87q6 -5 6 -13q0 -12 -15 -12q-10 0 -56 20.5t-69 33.5q-5 4 -11 4t-11 -4q-23 -13 -69 -33t-56 -20q-16 0 -16 11z" />
    <glyph glyph-name="jcircumflex" unicode="&#x135;" horiz-adv-x="240" 
d="M-17.5 -284q-8.5 3 -8.5 9t4.5 11t9.5 7q19 7 34.5 20.5t28.5 40.5q18 39 25 112.5t7 146.5v217q0 63 -46 71q-4 1 -6.5 5.5t-2.5 9.5t2.5 8.5t6.5 4.5q36 8 63 21.5t58 31.5l16 7q9 0 9 -8q-9 -90 -9 -152l1 -188q0 -67 -6.5 -128.5t-26.5 -114.5q-21 -52 -63.5 -93.5
t-76.5 -41.5q-11 0 -19.5 3zM148 631q77 -128 85 -154q2 -8 2 -10q0 -12 -11 -12q-10 0 -33 25q-8 9 -16.5 20t-17.5 22l-30 37q-3 4 -4.5 4t-4.5 -4l-63 -79q-9 -9 -18.5 -17t-15.5 -8q-11 0 -11 10l2 12q5 15 35 68.5t50 85.5q14 25 25 25q12 0 26 -25z" />
    <glyph glyph-name="uni0136" unicode="&#x136;" horiz-adv-x="710" 
d="M34.5 -1.5q-8.5 3.5 -8.5 9.5q0 7 7.5 11.5t23.5 7.5q38 7 51.5 22t13.5 51v451q0 33 -14 47.5t-53 22.5q-29 6 -29 20q0 6 7.5 9.5t18.5 3.5q27 0 67 -2l56 -1q32 0 48 1l66 1q25 0 25 -12q0 -14 -29 -20q-36 -8 -46.5 -23t-10.5 -47v-193q0 -6 2 -12t5 -6q9 0 26 17
l197 205q17 17 17 31q0 19 -27 25q-15 4 -21.5 9t-6.5 12q0 6 7.5 9t18.5 3h59q42 0 112 2l63 2q10 0 16.5 -3.5t6.5 -8.5q0 -15 -32 -21q-94 -15 -152 -64q-47 -39 -88 -79t-98 -100q-3 -3 -3 -8q0 -7 7 -14l241 -261q31 -34 49.5 -47t57.5 -22q18 -4 25.5 -8t7.5 -11
q0 -13 -33 -13q-21 0 -43.5 1.5t-33.5 1.5q-36 3 -76 3l-39 -1q-30 -2 -57 -2q-26 0 -26 13q0 12 25 18q32 7 32 23q0 10 -15 27l-195 219q-16 16 -23 16q-6 0 -6 -19q0 -89 4 -188q2 -35 14.5 -53.5t47.5 -26.5q16 -3 23.5 -7.5t7.5 -11.5q0 -6 -8 -9.5t-21 -3.5
q-39 0 -67 5q-7 0 -19.5 1.5t-24.5 1.5q-21 0 -57 -4q-42 -4 -73 -4q-12 0 -20.5 3.5zM304 -270q0 9 15 14q25 9 39.5 28t14.5 41q0 20 -10 29t-34 15q-19 5 -28.5 15.5t-9.5 30.5q0 18 14 30t37 12q39 0 65 -28t26 -73q0 -37 -20 -65t-47 -43.5t-46 -15.5q-16 0 -16 10z
" />
    <glyph glyph-name="uni0137" unicode="&#x137;" horiz-adv-x="496" 
d="M18 9q0 6 4.5 9t10.5 5.5t8 3.5q20 6 30.5 13.5t10.5 26.5v493q0 34 -9.5 50.5t-33.5 22.5q-9 2 -9 14q0 11 8 13q44 9 81.5 24t44.5 18q6 3 10 3q7 0 7 -10q0 -7 -3.5 -36t-3.5 -75v-344q0 -10 6 -10q13 0 29 15q36 32 65.5 62t40.5 45q9 12 9 16q0 5 -8 9.5t-20 6.5
q-12 1 -12 10q0 13 22 13h49q16 0 72 7q30 4 37 4q13 0 13 -11q0 -12 -24 -19q-35 -9 -73 -33q-15 -9 -52 -38.5t-69 -58.5q-6 -4 -6 -10q0 -4 4 -8q66 -84 143 -164q15 -15 37 -28.5t40 -20.5q15 -5 22 -8t7 -10q0 -12 -20 -12l-97 1q-68 2 -104 2q-19 0 -19 11q0 12 19 17
q12 4 17.5 8.5t5.5 12.5q0 6 -8 16l-113 136q-4 6 -8 6q-5 0 -5 -7q-1 -20 -1 -64q0 -47 1 -70q0 -17 8 -25.5t25 -13.5q11 -4 16.5 -7.5t5.5 -10.5q0 -6 -7 -9t-14 -3q-26 0 -43 3q-22 2 -38 2q-17 0 -41 -2q-19 -3 -46 -3q-22 0 -22 12zM192 -270q0 9 15 14q25 9 39.5 28
t14.5 41q0 20 -10 29t-34 15q-19 5 -28.5 15.5t-9.5 30.5q0 18 14 30t37 12q39 0 65 -28t26 -73q0 -37 -20 -65t-47 -43.5t-46 -15.5q-16 0 -16 10z" />
    <glyph glyph-name="kgreenlandic" unicode="&#x138;" horiz-adv-x="511" 
d="M21 8q0 7 5.5 10.5t17.5 8.5q21 6 31.5 13.5t10.5 26.5v213q0 62 -46 71q-4 1 -6.5 5t-2.5 10q0 5 2 8.5t6 4.5q32 7 58 19t43.5 21.5t23.5 12.5q10 7 15 7q9 0 9 -8l-3 -26q-8 -70 -8 -113v-54q0 -11 7 -9q7 1 16.5 8.5t12.5 9.5q38 33 69.5 65.5t40.5 46.5q3 5 3 7
q0 5 -7.5 10.5t-19.5 7.5q-4 1 -8 3.5t-4 5.5q0 8 7.5 11t14.5 3h49q21 0 50.5 3.5t38.5 4.5l24 3q4 0 6.5 -2.5t2.5 -6.5q0 -7 -6.5 -13t-14.5 -8q-29 -6 -70 -31q-14 -8 -54 -40.5t-70 -61.5q-5 -5 -5 -11q0 -5 7 -12q76 -94 137 -157q16 -16 40.5 -30.5t41.5 -19.5
q12 -4 18 -8t6 -11q0 -10 -21 -10q-27 0 -79 2q-38 2 -58 2h-60q-22 0 -22 11q0 12 22 19q10 4 15 7.5t5 9.5q0 4 -9 17l-116 142q-1 1 -3 1q-3 0 -5 -2.5t-2 -7.5v-131q0 -17 8.5 -25.5t25.5 -13.5q10 -4 16 -8t6 -11q0 -11 -21 -11q-26 0 -43 3q-22 2 -38 2q-17 0 -41 -2
q-19 -3 -46 -3q-23 0 -23 11z" />
    <glyph glyph-name="Lacute" unicode="&#x139;" horiz-adv-x="585" 
d="M31.5 -1q-6.5 4 -6.5 9q0 11 21 18q40 9 57.5 24t17.5 46v461q0 24 -5 35.5t-17 17.5t-40 11q-29 6 -29 20q0 13 26 13q27 0 67 -2q36 -2 56 -2l64 1q44 2 70 2q25 0 25 -12q0 -14 -29 -20q-45 -10 -63.5 -21t-18.5 -38v-463q0 -31 14.5 -44.5t54.5 -13.5h116
q24 0 43.5 7.5t32.5 18.5q18 17 29 32.5t23 41.5q8 16 13 23.5t11 7.5t9.5 -6t3.5 -13q0 -3 -1 -5.5t-1 -5.5q-14 -50 -19.5 -74.5t-8.5 -54.5q-2 -18 -15 -18q-52 0 -172 2q-88 3 -172 3q-47 0 -107 -4l-31 -1q-12 0 -18.5 4zM140 691q0 7 7 17q51 75 88 121q9 13 29 13
q15 -1 39.5 -10t23.5 -18q-1 -6 -4 -10t-11 -10q-31 -24 -91 -65q-36 -24 -52 -36q-13 -9 -21 -9t-8 7z" />
    <glyph glyph-name="lacute" unicode="&#x13a;" horiz-adv-x="256" 
d="M18 8q0 7 5.5 10.5t17.5 8.5q22 7 31.5 13.5t9.5 24.5v495q0 64 -44 73q-8 2 -8 14q0 11 7 13q43 9 81.5 24.5t46.5 18.5q6 2 9 2t4.5 -3t1.5 -6q0 -6 -3 -34.5t-3 -77.5v-519q0 -18 10 -25t31 -13q23 -8 23 -19q0 -10 -20 -10t-48 2q-26 2 -43 2q-16 0 -42 -2
q-19 -3 -47 -3q-20 0 -20 11zM37 741q-5 3 -5 7q0 7 8 15q18 16 71.5 50t82.5 49q12 6 20 6q12 0 22 -10.5t16 -24t6 -20.5q0 -10 -6 -12q-26 -11 -82 -29t-92 -28q-4 -1 -13.5 -3.5t-16.5 -2.5q-6 0 -11 3z" />
    <glyph glyph-name="uni013B" unicode="&#x13b;" horiz-adv-x="585" 
d="M31.5 -1q-6.5 4 -6.5 9q0 11 21 18q40 9 57.5 24t17.5 46v461q0 24 -5 35.5t-17 17.5t-40 11q-29 6 -29 20q0 13 26 13q27 0 67 -2q36 -2 56 -2l64 1q44 2 70 2q25 0 25 -12q0 -14 -29 -20q-45 -10 -63.5 -21t-18.5 -38v-463q0 -31 14.5 -44.5t54.5 -13.5h116
q24 0 43.5 7.5t32.5 18.5q18 17 29 32.5t23 41.5q8 16 13 23.5t11 7.5t9.5 -6t3.5 -13q0 -3 -1 -5.5t-1 -5.5q-14 -50 -19.5 -74.5t-8.5 -54.5q-2 -18 -15 -18q-52 0 -172 2q-88 3 -172 3q-47 0 -107 -4l-31 -1q-12 0 -18.5 4zM250 -270q0 9 15 14q25 9 39.5 28t14.5 41
q0 20 -10 29t-34 15q-19 5 -28.5 15.5t-9.5 30.5q0 18 14 30t37 12q39 0 65 -28t26 -73q0 -37 -20 -65t-47 -43.5t-46 -15.5q-16 0 -16 10z" />
    <glyph glyph-name="uni013C" unicode="&#x13c;" horiz-adv-x="256" 
d="M18 8q0 7 5.5 10.5t17.5 8.5q22 7 31.5 13.5t9.5 24.5v495q0 64 -44 73q-8 2 -8 14q0 11 7 13q43 9 81.5 24.5t46.5 18.5q6 2 9 2t4.5 -3t1.5 -6q0 -6 -3 -34.5t-3 -77.5v-519q0 -18 10 -25t31 -13q23 -8 23 -19q0 -10 -20 -10t-48 2q-26 2 -43 2q-16 0 -42 -2
q-19 -3 -47 -3q-20 0 -20 11zM72 -270q0 9 15 14q25 9 39.5 28t14.5 41q0 20 -10 29t-34 15q-19 5 -28.5 15.5t-9.5 30.5q0 18 14 30t37 12q39 0 65 -28t26 -73q0 -37 -20 -65t-47 -43.5t-46 -15.5q-16 0 -16 10z" />
    <glyph glyph-name="Lcaron" unicode="&#x13d;" horiz-adv-x="585" 
d="M31.5 -1q-6.5 4 -6.5 9q0 11 21 18q40 9 57.5 24t17.5 46v461q0 24 -5 35.5t-17 17.5t-40 11q-29 6 -29 20q0 13 26 13q27 0 67 -2q36 -2 56 -2l64 1q44 2 70 2q25 0 25 -12q0 -14 -29 -20q-45 -10 -63.5 -21t-18.5 -38v-463q0 -31 14.5 -44.5t54.5 -13.5h116
q24 0 43.5 7.5t32.5 18.5q18 17 29 32.5t23 41.5q8 16 13 23.5t11 7.5t9.5 -6t3.5 -13q0 -3 -1 -5.5t-1 -5.5q-14 -50 -19.5 -74.5t-8.5 -54.5q-2 -18 -15 -18q-52 0 -172 2q-88 3 -172 3q-47 0 -107 -4l-31 -1q-12 0 -18.5 4zM410.5 468q-2.5 7 -2.5 17q0 6 2 26.5t2 30.5
q0 26 -4 54q-2 18 -2 24q0 16 20.5 33.5t39.5 17.5q10 0 13 -8t3 -24q0 -30 -12 -75.5t-28 -75.5q-14 -27 -25 -27q-4 0 -6.5 7z" />
    <glyph glyph-name="lcaron" unicode="&#x13e;" horiz-adv-x="273" 
d="M18 8q0 7 5.5 10.5t17.5 8.5q22 7 31.5 13.5t9.5 24.5v495q0 64 -44 73q-8 2 -8 14q0 11 7 13q43 9 81.5 24.5t46.5 18.5q6 2 9 2t4.5 -3t1.5 -6q0 -6 -3 -34.5t-3 -77.5v-519q0 -18 10 -25t31 -13q23 -8 23 -19q0 -10 -20 -10t-48 2q-26 2 -43 2q-16 0 -42 -2
q-19 -3 -47 -3q-20 0 -20 11zM236.5 506q-2.5 7 -2.5 17q0 6 2 26.5t2 30.5q0 26 -4 54q-2 18 -2 24q0 16 20.5 33.5t39.5 17.5q10 0 13 -8t3 -24q0 -30 -12 -75.5t-28 -75.5q-14 -27 -25 -27q-4 0 -6.5 7z" />
    <glyph glyph-name="Ldot" unicode="&#x13f;" horiz-adv-x="585" 
d="M31.5 -1q-6.5 4 -6.5 9q0 11 21 18q40 9 57.5 24t17.5 46v461q0 24 -5 35.5t-17 17.5t-40 11q-29 6 -29 20q0 13 26 13q27 0 67 -2q36 -2 56 -2l64 1q44 2 70 2q25 0 25 -12q0 -14 -29 -20q-45 -10 -63.5 -21t-18.5 -38v-463q0 -31 14.5 -44.5t54.5 -13.5h116
q24 0 43.5 7.5t32.5 18.5q18 17 29 32.5t23 41.5q8 16 13 23.5t11 7.5t9.5 -6t3.5 -13q0 -3 -1 -5.5t-1 -5.5q-14 -50 -19.5 -74.5t-8.5 -54.5q-2 -18 -15 -18q-52 0 -172 2q-88 3 -172 3q-47 0 -107 -4l-31 -1q-12 0 -18.5 4zM418.5 317.5q-17.5 17.5 -17.5 42.5
q0 26 17.5 43.5t42.5 17.5q26 0 44 -17.5t18 -43.5q0 -25 -18 -42.5t-44 -17.5q-25 0 -42.5 17.5z" />
    <glyph glyph-name="ldot" unicode="&#x140;" horiz-adv-x="359" 
d="M18 8q0 7 5.5 10.5t17.5 8.5q22 7 31.5 13.5t9.5 24.5v495q0 64 -44 73q-8 2 -8 14q0 11 7 13q43 9 81.5 24.5t46.5 18.5q6 2 9 2t4.5 -3t1.5 -6q0 -6 -3 -34.5t-3 -77.5v-519q0 -18 10 -25t31 -13q23 -8 23 -19q0 -10 -20 -10t-48 2q-26 2 -43 2q-16 0 -42 -2
q-19 -3 -47 -3q-20 0 -20 11zM261 298q-19 19 -19 45q0 27 19 46t45 19t45 -19t19 -46q0 -26 -19 -45t-45 -19t-45 19z" />
    <glyph glyph-name="Lslash" unicode="&#x141;" horiz-adv-x="585" 
d="M573.5 166q3.5 -6 3.5 -13q0 -3 -1 -5.5t-1 -5.5q-14 -50 -19.5 -74.5t-8.5 -54.5q-2 -18 -15 -18q-52 0 -172 2q-88 3 -172 3q-47 0 -107 -4l-31 -1q-12 0 -18.5 4t-6.5 9q0 11 21 18q40 9 57.5 24t17.5 46v181l-61 -22q-3 -1 -10 -1q-14 0 -14 9q0 14 4.5 24.5
t12.5 13.5l68 25v231q0 24 -5 35.5t-17 17.5t-40 11q-29 6 -29 20q0 13 26 13q27 0 67 -2q36 -2 56 -2l64 1q44 2 70 2q25 0 25 -12q0 -14 -29 -20q-45 -10 -63.5 -21t-18.5 -38v-204l147 53q6 2 8 2q5 0 9 -3t4 -8q0 -16 -6 -26.5t-17 -14.5l-145 -52v-210
q0 -31 14.5 -44.5t54.5 -13.5h116q24 0 43.5 7.5t32.5 18.5q18 17 29 32.5t23 41.5q8 16 13 23.5t11 7.5t9.5 -6z" />
    <glyph glyph-name="lslash" unicode="&#x142;" horiz-adv-x="283" 
d="M189 359v-294q0 -18 10 -25t31 -13q23 -8 23 -19q0 -10 -20 -10t-48 2q-26 2 -43 2q-16 0 -42 -2q-19 -3 -47 -3q-20 0 -20 11q0 7 5.5 10.5t17.5 8.5q22 7 31.5 13.5t9.5 24.5v251l-48 -26l-3 -1q-7 0 -13.5 7t-6.5 13q0 11 15 21l56 30v200q0 64 -44 73q-8 2 -8 14
q0 11 7 13q43 9 81.5 24.5t46.5 18.5q6 2 9 2t4.5 -3t1.5 -6q0 -6 -3 -34.5t-3 -77.5v-181l54 29q4 2 8 2q13 0 13 -23q0 -6 -6.5 -12.5t-14.5 -10.5z" />
    <glyph glyph-name="Nacute" unicode="&#x143;" horiz-adv-x="798" 
d="M631 -1q-27 17 -50 49l-108 124q-246 283 -267 306q-11 15 -18 15q-4 0 -6 -6.5t-2 -14.5q-2 -192 -2 -365q0 -66 70 -80q31 -7 31 -19t-28 -12q-30 0 -60 2q-24 2 -40 2q-20 0 -46 -2t-45 -2q-28 0 -28 12q0 7 7 11t24 9q50 14 55 81q7 68 13 177t6 221q0 49 -24 73
t-72 40q-9 3 -19.5 9t-10.5 14t7.5 11.5t16.5 3.5q42 0 75 -3q54 -2 94 -2q7 0 11.5 -3.5t10.5 -11.5l117 -140q64 -76 140 -166.5t129 -152.5q15 -18 22 -18q9 0 10 19v226v155q-1 21 -20 36.5t-44 21.5q-16 3 -27 8t-11 12q0 6 11 9t24 3h71l49 1q32 2 64 2q27 0 27 -13
q0 -14 -31 -20q-36 -7 -49 -18.5t-14 -37.5q-5 -270 -5 -441q0 -28 5 -83l2 -27q0 -32 -24 -32q-14 0 -41 17zM366 691q0 7 7 17q51 75 88 121q9 13 29 13q15 -1 39.5 -10t23.5 -18q-1 -6 -4 -10t-11 -10q-31 -24 -91 -65q-36 -24 -52 -36q-13 -9 -21 -9t-8 7z" />
    <glyph glyph-name="nacute" unicode="&#x144;" horiz-adv-x="541" 
d="M28.5 0q-5.5 3 -5.5 9q0 7 5.5 11t17.5 7q20 5 30.5 12.5t10.5 25.5v220q0 29 -7 44.5t-28 21.5q-10 2 -10 14q0 13 9 14q64 17 116 51q8 6 13 6q7 0 7 -9l-2 -20q-1 -7 -2 -18t-1 -23q0 -11 2 -13q35 34 73 50.5t84 16.5q50 0 83 -39.5t33 -100.5v-216q0 -18 10 -24
t32 -13q22 -8 22 -19t-19 -11q-28 0 -48 3q-26 2 -42 2t-42 -2q-19 -3 -48 -3q-7 0 -13 2.5t-6 8.5q0 11 22 19q22 7 31.5 13t9.5 24v207q0 41 -22 64.5t-59 24.5q-55 0 -98 -35q-8 -8 -8 -21v-240q0 -18 10 -25t30 -12q22 -6 22 -18t-19 -12q-27 0 -47 3q-24 2 -41 2
q-16 0 -42 -2q-21 -3 -49 -3q-9 0 -14.5 3zM245 466q0 7 4 19q9 25 33.5 72.5t39.5 74.5q11 20 33 20q23 0 38 -5.5t15 -16.5q0 -7 -4.5 -14t-5.5 -8q-22 -30 -56.5 -70t-58.5 -63q-19 -19 -29 -19q-9 0 -9 10z" />
    <glyph glyph-name="uni0145" unicode="&#x145;" horiz-adv-x="777" 
d="M631 -1q-27 17 -50 49l-108 124q-246 283 -267 306q-11 15 -18 15q-4 0 -6 -6.5t-2 -14.5q-2 -192 -2 -365q0 -66 70 -80q31 -7 31 -19t-28 -12q-30 0 -60 2q-24 2 -40 2q-20 0 -46 -2t-45 -2q-28 0 -28 12q0 7 7 11t24 9q50 14 55 81q7 68 13 177t6 221q0 49 -24 73
t-72 40q-9 3 -19.5 9t-10.5 14t7.5 11.5t16.5 3.5q42 0 75 -3q54 -2 94 -2q7 0 11.5 -3.5t10.5 -11.5l117 -140q64 -76 140 -166.5t129 -152.5q15 -18 22 -18q9 0 10 19v226v155q-1 21 -20 36.5t-44 21.5q-16 3 -27 8t-11 12q0 6 11 9t24 3h71l49 1q32 2 64 2q27 0 27 -13
q0 -14 -31 -20q-36 -7 -49 -18.5t-14 -37.5q-5 -270 -5 -441q0 -28 5 -83l2 -27q0 -32 -24 -32q-14 0 -41 17zM346 -270q0 9 15 14q25 9 39.5 28t14.5 41q0 20 -10 29t-34 15q-19 5 -28.5 15.5t-9.5 30.5q0 18 14 30t37 12q39 0 65 -28t26 -73q0 -37 -20 -65t-47 -43.5
t-46 -15.5q-16 0 -16 10z" />
    <glyph glyph-name="uni0146" unicode="&#x146;" horiz-adv-x="541" 
d="M28.5 0q-5.5 3 -5.5 9q0 7 5.5 11t17.5 7q20 5 30.5 12.5t10.5 25.5v220q0 29 -7 44.5t-28 21.5q-10 2 -10 14q0 13 9 14q64 17 116 51q8 6 13 6q7 0 7 -9l-2 -20q-1 -7 -2 -18t-1 -23q0 -11 2 -13q35 34 73 50.5t84 16.5q50 0 83 -39.5t33 -100.5v-216q0 -18 10 -24
t32 -13q22 -8 22 -19t-19 -11q-28 0 -48 3q-26 2 -42 2t-42 -2q-19 -3 -48 -3q-7 0 -13 2.5t-6 8.5q0 11 22 19q22 7 31.5 13t9.5 24v207q0 41 -22 64.5t-59 24.5q-55 0 -98 -35q-8 -8 -8 -21v-240q0 -18 10 -25t30 -12q22 -6 22 -18t-19 -12q-27 0 -47 3q-24 2 -41 2
q-16 0 -42 -2q-21 -3 -49 -3q-9 0 -14.5 3zM217 -270q0 9 15 14q25 9 39.5 28t14.5 41q0 20 -10 29t-34 15q-19 5 -28.5 15.5t-9.5 30.5q0 18 14 30t37 12q39 0 65 -28t26 -73q0 -37 -20 -65t-47 -43.5t-46 -15.5q-16 0 -16 10z" />
    <glyph glyph-name="Ncaron" unicode="&#x147;" horiz-adv-x="798" 
d="M631 -1q-27 17 -50 49l-108 124q-246 283 -267 306q-11 15 -18 15q-4 0 -6 -6.5t-2 -14.5q-2 -192 -2 -365q0 -66 70 -80q31 -7 31 -19t-28 -12q-30 0 -60 2q-24 2 -40 2q-20 0 -46 -2t-45 -2q-28 0 -28 12q0 7 7 11t24 9q50 14 55 81q7 68 13 177t6 221q0 49 -24 73
t-72 40q-9 3 -19.5 9t-10.5 14t7.5 11.5t16.5 3.5q42 0 75 -3q54 -2 94 -2q7 0 11.5 -3.5t10.5 -11.5l117 -140q64 -76 140 -166.5t129 -152.5q15 -18 22 -18q9 0 10 19v226v155q-1 21 -20 36.5t-44 21.5q-16 3 -27 8t-11 12q0 6 11 9t24 3h71l49 1q32 2 64 2q27 0 27 -13
q0 -14 -31 -20q-36 -7 -49 -18.5t-14 -37.5q-5 -270 -5 -441q0 -28 5 -83l2 -27q0 -32 -24 -32q-14 0 -41 17zM334 811q46 -20 69 -33q8 -4 11 -4t11 4q23 13 69 33.5t56 20.5q15 0 15 -12q0 -8 -6 -13l-101 -83q-19 -16 -26 -20.5t-18 -4.5t-18 4.5t-26 20.5l-101 83
q-7 6 -7 13q0 11 16 11q10 0 56 -20z" />
    <glyph glyph-name="ncaron" unicode="&#x148;" horiz-adv-x="541" 
d="M28.5 0q-5.5 3 -5.5 9q0 7 5.5 11t17.5 7q20 5 30.5 12.5t10.5 25.5v220q0 29 -7 44.5t-28 21.5q-10 2 -10 14q0 13 9 14q64 17 116 51q8 6 13 6q7 0 7 -9l-2 -20q-1 -7 -2 -18t-1 -23q0 -11 2 -13q35 34 73 50.5t84 16.5q50 0 83 -39.5t33 -100.5v-216q0 -18 10 -24
t32 -13q22 -8 22 -19t-19 -11q-28 0 -48 3q-26 2 -42 2t-42 -2q-19 -3 -48 -3q-7 0 -13 2.5t-6 8.5q0 11 22 19q22 7 31.5 13t9.5 24v207q0 41 -22 64.5t-59 24.5q-55 0 -98 -35q-8 -8 -8 -21v-240q0 -18 10 -25t30 -12q22 -6 22 -18t-19 -12q-27 0 -47 3q-24 2 -41 2
q-16 0 -42 -2q-21 -3 -49 -3q-9 0 -14.5 3zM254 480q-20 32 -50 85.5t-35 68.5l-2 12q0 10 11 10q6 0 15.5 -8t18.5 -17l63 -79q3 -4 4.5 -4t4.5 4l30 37q9 11 17.5 22t16.5 20q23 25 33 25q11 0 11 -12q0 -2 -2 -10q-8 -26 -85 -154q-14 -25 -26 -25q-11 0 -25 25z" />
    <glyph glyph-name="napostrophe" unicode="&#x149;" horiz-adv-x="629" 
d="M116.5 0q-5.5 3 -5.5 9q0 7 5.5 11t17.5 7q20 5 30.5 12.5t10.5 25.5v220q0 29 -7 44.5t-28 21.5q-10 2 -10 14q0 13 9 14q64 17 116 51q8 6 13 6q7 0 7 -9l-2 -20q-1 -7 -2 -18t-1 -23q0 -11 2 -13q35 34 73 50.5t84 16.5q50 0 83 -39.5t33 -100.5v-216q0 -18 10 -24
t32 -13q22 -8 22 -19t-19 -11q-28 0 -48 3q-26 2 -42 2t-42 -2q-19 -3 -48 -3q-7 0 -13 2.5t-6 8.5q0 11 22 19q22 7 31.5 13t9.5 24v207q0 41 -22 64.5t-59 24.5q-55 0 -98 -35q-8 -8 -8 -21v-240q0 -18 10 -25t30 -12q22 -6 22 -18t-19 -12q-27 0 -47 3q-24 2 -41 2
q-16 0 -42 -2q-21 -3 -49 -3q-9 0 -14.5 3zM-19 433q0 10 16 13q40 9 66.5 34.5t26.5 67.5q0 14 -12 27.5t-28 16.5q-20 3 -32.5 15.5t-12.5 31.5q0 22 18 37t42 15q39 0 64 -28t25 -71q0 -49 -24.5 -88.5t-60.5 -61.5t-68 -22q-20 0 -20 13z" />
    <glyph glyph-name="Eng" unicode="&#x14a;" horiz-adv-x="777" 
d="M481.5 -239q-21.5 22 -21.5 56q0 14 5.5 19.5t23.5 6.5q55 5 84.5 16.5t40.5 31.5t11 52q0 34 -22 63l-387 467q-12 14 -19 14q-4 0 -6 -6.5t-2 -13.5q-5 -242 -5 -360q0 -66 70 -80q16 -3 23.5 -7.5t7.5 -11.5q0 -12 -27 -12q-32 0 -60 2q-24 2 -41 2q-20 0 -46 -2
q-28 -2 -48 -2q-27 0 -27 12q0 7 7.5 11.5t22.5 7.5q24 5 39 32.5t17 49.5q7 63 12 173.5t5 225.5q0 49 -23 72.5t-71 39.5q-9 2 -19.5 8.5t-10.5 14.5t7.5 11.5t16.5 3.5q30 0 74 -2q42 -3 96 -3q7 0 12 -4t11 -11q309 -389 367 -458q1 -1 8.5 -9t13.5 -8q9 0 9 19
q2 68 2 377q0 21 -18.5 37.5t-43.5 22.5q-30 5 -30 20q0 6 7.5 9t19.5 3h71l49 1q32 2 63 2q28 0 28 -13q0 -14 -31 -20q-37 -7 -50.5 -18.5t-13.5 -37.5l-1 -545q0 -72 -18.5 -137t-52 -104.5t-74.5 -39.5q-34 0 -55.5 22z" />
    <glyph glyph-name="eng" unicode="&#x14b;" horiz-adv-x="527" 
d="M264.5 -277q-16.5 9 -16.5 21q0 19 6.5 30.5t16.5 11.5q7 0 29 -9q5 -1 17.5 -5t19.5 -4q9 0 13 17q20 91 19 214l-3 272q0 41 -22.5 64.5t-58.5 23.5q-49 0 -83 -27q-11 -8 -16.5 -22.5t-5.5 -41.5v-199q0 -18 10.5 -27t28.5 -15q22 -8 22 -19t-21 -11q-27 0 -45 3
q-24 2 -41 2q-16 0 -42 -2q-19 -3 -47 -3q-22 0 -22 11q0 7 6 11t17 8q19 6 30 14t12 26v218q-2 29 -9.5 45.5t-28.5 20.5q-4 1 -6.5 5t-2.5 9q0 13 8 14q62 15 123 54q6 3 7 3q6 0 8 -10q0 -7 -3 -24q-4 -26 -4 -38q0 -8 2 -10q26 24 70.5 45.5t86.5 21.5q52 0 86 -39.5
t34 -115.5v-239q0 -68 -21 -139t-58.5 -120t-85.5 -53q-13 -1 -29.5 8z" />
    <glyph glyph-name="Omacron" unicode="&#x14c;" horiz-adv-x="762" 
d="M209.5 27.5q-77.5 41.5 -124 116.5t-46.5 171q0 92 40.5 172t119 128.5t186.5 48.5q90 0 167.5 -41.5t124 -116.5t46.5 -171q0 -92 -40.5 -172t-119 -128.5t-187.5 -48.5q-89 0 -166.5 41.5zM548 97q54 69 54 188q0 92 -26.5 168t-79 121.5t-128.5 45.5
q-101 0 -154.5 -68.5t-53.5 -185.5q0 -92 26 -169t78.5 -123t127.5 -46q102 0 156 69zM244.5 725.5q-4.5 4.5 -4.5 9.5q0 16 7.5 32.5t20.5 16.5h265q6 0 10.5 -4.5t4.5 -9.5q0 -18 -10.5 -33.5t-23.5 -15.5h-258q-7 0 -11.5 4.5z" />
    <glyph glyph-name="omacron" unicode="&#x14d;" horiz-adv-x="498" 
d="M131.5 12q-46.5 26 -73.5 73t-27 105t30 111.5t82 86.5t113 33q58 0 106.5 -28t76.5 -75t28 -101q0 -62 -26.5 -115t-79 -84.5t-126.5 -31.5q-57 0 -103.5 26zM344 68q21 39 21 125q0 50 -16 94t-44.5 71t-65.5 27q-24 0 -42 -7.5t-33 -25.5q-17 -22 -24 -56.5t-7 -82.5
q0 -49 16 -93t44.5 -71.5t62.5 -27.5q62 0 88 47zM127.5 507.5q-4.5 4.5 -4.5 9.5q0 16 8 33t21 17h222q6 0 10.5 -4.5t4.5 -9.5q0 -20 -9.5 -35t-24.5 -15h-216q-7 0 -11.5 4.5z" />
    <glyph glyph-name="Obreve" unicode="&#x14e;" horiz-adv-x="762" 
d="M209.5 27.5q-77.5 41.5 -124 116.5t-46.5 171q0 92 40.5 172t119 128.5t186.5 48.5q90 0 167.5 -41.5t124 -116.5t46.5 -171q0 -92 -40.5 -172t-119 -128.5t-187.5 -48.5q-89 0 -166.5 41.5zM548 97q54 69 54 188q0 92 -26.5 168t-79 121.5t-128.5 45.5
q-101 0 -154.5 -68.5t-53.5 -185.5q0 -92 26 -169t78.5 -123t127.5 -46q102 0 156 69zM317 708q-32 18 -49 44.5t-17 48.5q0 11 3 18t8 7q6 0 11.5 -4.5t9 -9t5.5 -7.5q21 -25 45.5 -36t57.5 -11t57.5 11t45.5 36q2 3 7 9t9.5 9t9.5 3q7 0 9 -6t2 -19q0 -22 -17 -48.5
t-49 -44.5t-74 -18t-74 18z" />
    <glyph glyph-name="obreve" unicode="&#x14f;" horiz-adv-x="498" 
d="M131.5 12q-46.5 26 -73.5 73t-27 105t30 111.5t82 86.5t113 33q58 0 106.5 -28t76.5 -75t28 -101q0 -62 -26.5 -115t-79 -84.5t-126.5 -31.5q-57 0 -103.5 26zM344 68q21 39 21 125q0 50 -16 94t-44.5 71t-65.5 27q-24 0 -42 -7.5t-33 -25.5q-17 -22 -24 -56.5t-7 -82.5
q0 -49 16 -93t44.5 -71.5t62.5 -27.5q62 0 88 47zM192.5 492q-25.5 17 -38 43t-12.5 51q0 12 5 19.5t13 7.5q13 0 17 -21q5 -23 24.5 -36.5t54.5 -13.5t54.5 13.5t24.5 36.5q4 21 17 21q8 0 13 -7.5t5 -19.5q0 -25 -12.5 -51t-38 -43t-63.5 -17t-63.5 17z" />
    <glyph glyph-name="Ohungarumlaut" unicode="&#x150;" horiz-adv-x="762" 
d="M209.5 27.5q-77.5 41.5 -124 116.5t-46.5 171q0 92 40.5 172t119 128.5t186.5 48.5q90 0 167.5 -41.5t124 -116.5t46.5 -171q0 -92 -40.5 -172t-119 -128.5t-187.5 -48.5q-89 0 -166.5 41.5zM548 97q54 69 54 188q0 92 -26.5 168t-79 121.5t-128.5 45.5
q-101 0 -154.5 -68.5t-53.5 -185.5q0 -92 26 -169t78.5 -123t127.5 -46q102 0 156 69zM412 691q0 7 7 17q51 75 88 121q9 13 29 13q15 -1 39.5 -10t23.5 -18q-1 -6 -4 -10t-11 -10q-31 -24 -91 -65q-36 -24 -52 -36q-13 -9 -21 -9t-8 7zM269 691q0 7 7 17q51 75 88 121
q9 13 29 13q15 -1 39.5 -10t23.5 -18q-1 -6 -4 -10t-11 -10q-31 -24 -91 -65q-36 -24 -52 -36q-13 -9 -21 -9t-8 7z" />
    <glyph glyph-name="ohungarumlaut" unicode="&#x151;" horiz-adv-x="498" 
d="M131.5 12q-46.5 26 -73.5 73t-27 105t30 111.5t82 86.5t113 33q58 0 106.5 -28t76.5 -75t28 -101q0 -62 -26.5 -115t-79 -84.5t-126.5 -31.5q-57 0 -103.5 26zM344 68q21 39 21 125q0 50 -16 94t-44.5 71t-65.5 27q-24 0 -42 -7.5t-33 -25.5q-17 -22 -24 -56.5t-7 -82.5
q0 -49 16 -93t44.5 -71.5t62.5 -27.5q62 0 88 47zM157.5 460q-1.5 3 -1.5 10q0 6 11 33q12 27 64 131q11 22 31 22q25 0 40 -6t15 -18q0 -6 -10 -19q-19 -30 -94 -115l-19 -21q-7 -8 -15 -14t-14 -6t-7.5 3zM288 460q-2 3 -2 10q0 8 10 27q53 110 69 138q5 9 13.5 14.5
t17.5 5.5q24 0 39.5 -6.5t15.5 -18.5q0 -4 -11 -21q-19 -26 -54 -65.5t-62 -67.5q-6 -7 -14.5 -13t-13.5 -6q-6 0 -8 3z" />
    <glyph glyph-name="OE" unicode="&#x152;" horiz-adv-x="961" 
d="M939 131q0 -16 -10 -52.5t-21 -67.5q-7 -16 -17 -16q-70 0 -150 3q-27 1 -69.5 2t-98.5 1q-29 0 -58 -3q-7 0 -22.5 -1.5t-29.5 -1.5q-40 -9 -87 -9q-89 0 -166.5 41.5t-124 116.5t-46.5 171q0 92 40.5 172t119 128.5t186.5 48.5q46 0 85 -10q25 0 65 -2q56 -2 87 -2
q67 0 165 2q33 0 56.5 1.5t26.5 1.5q7 0 13 -3t7 -9l5 -30q11 -57 11 -82q0 -9 -4.5 -13t-9.5 -4q-10 0 -14 12q-1 4 -6.5 19.5t-10.5 25.5t-10 16q-27 28 -68 28h-112q-14 0 -28 -10.5t-14 -25.5v-204q0 -10 6 -16t15 -6h94q27 0 38.5 12t19.5 41q7 20 19 20q5 0 9 -5
t4 -13q-4 -56 -4 -73q0 -37 3 -79v-4q0 -16 -9 -16q-16 0 -24 29q-7 27 -17.5 39.5t-29.5 12.5h-93q-17 0 -24 -5.5t-7 -20.5v-191q0 -34 14.5 -48t46.5 -14h79q58 0 85 19q16 11 29 29t28 49q8 13 17 12q11 0 11 -16zM221.5 116.5q59.5 -85.5 168.5 -85.5q63 0 95 12.5
t38 49.5v5v428q-6 53 -47 72.5t-106 19.5q-101 0 -154.5 -73t-53.5 -200q0 -143 59.5 -228.5z" />
    <glyph glyph-name="oe" unicode="&#x153;" horiz-adv-x="759" 
d="M131.5 12q-46.5 26 -73.5 73t-27 105t30 111.5t82 86.5t113 33q58 0 106.5 -28t76.5 -75t28 -101q0 -62 -26.5 -115t-79 -84.5t-126.5 -31.5q-57 0 -103.5 26zM344 68q21 39 21 125q0 50 -16 94t-44.5 71t-65.5 27q-24 0 -42 -7.5t-33 -25.5q-17 -22 -24 -56.5t-7 -82.5
q0 -49 16 -93t44.5 -71.5t62.5 -27.5q62 0 88 47zM476 13q-42 28 -65.5 77.5t-23.5 113.5q0 58 27.5 107.5t74 79t100.5 29.5q62 0 102.5 -37t40.5 -93q0 -17 -7.5 -25t-23.5 -8h-207q-14 0 -19.5 -8t-5.5 -29q0 -44 19 -81t52.5 -58.5t73.5 -21.5q56 0 100 44q5 8 11 8
q9 0 9 -11q0 -15 -14 -38q-21 -34 -60.5 -55.5t-87.5 -21.5q-54 0 -96 28zM575 291q45 0 69 5q9 3 9 25q0 28 -23 47.5t-55 19.5q-21 0 -43 -13t-35.5 -33t-13.5 -39q0 -12 13 -12h79z" />
    <glyph glyph-name="Racute" unicode="&#x154;" horiz-adv-x="730" 
d="M548.5 -5q-37.5 16 -64.5 51q-41 51 -71 94t-72 114q-13 24 -37 37q-25 12 -63 17q-14 0 -14 -20v-181q0 -33 16.5 -53t54.5 -27q15 -3 22 -7.5t7 -11.5q0 -12 -26 -12q-10 0 -67 3q-25 3 -51 3q-34 0 -66 -3q-10 0 -31 -1.5t-39 -1.5q-26 0 -26 12q0 7 7 11.5t22 7.5
q39 7 55 22.5t16 49.5v434q0 36 -4 52.5t-16 24t-40 11.5q-15 1 -22.5 7t-7.5 13q0 6 7.5 9.5t18.5 3.5q32 0 64 -2l48 -1q17 0 47 2q38 4 76 4q113 0 172 -41t59 -122q0 -61 -35 -100.5t-86 -62.5q-3 -1 -3 -5l2 -8q60 -91 99.5 -142.5t95.5 -102.5q26 -24 53 -30t71 -6
q15 0 15 -14q0 -23 -29 -33.5t-66 -10.5q-54 0 -91.5 16zM374.5 375q37.5 41 37.5 101q0 71 -29 108.5t-105 37.5q-28 0 -37.5 -19t-11.5 -74q-2 -64 -2 -159q0 -22 11.5 -29t36.5 -7q62 0 99.5 41zM247 691q0 7 7 17q51 75 88 121q9 13 29 13q15 -1 39.5 -10t23.5 -18
q-1 -6 -4 -10t-11 -10q-31 -24 -91 -65q-36 -24 -52 -36q-13 -9 -21 -9t-8 7z" />
    <glyph glyph-name="racute" unicode="&#x155;" horiz-adv-x="362" 
d="M26 9q0 7 5.5 11t17.5 7q20 4 29 13.5t9 24.5v220q0 27 -8 43.5t-29 21.5q-4 1 -7.5 5t-3.5 10q0 10 10 14q26 7 57.5 21t54.5 27q13 8 18 8q7 0 7 -8l-3 -77q0 -4 2 -4q26 33 57.5 54t61.5 21q26 0 40 -10.5t14 -27.5q0 -19 -14.5 -40t-31.5 -21q-8 0 -32 11
q-4 2 -14.5 6.5t-18.5 4.5q-29 0 -48 -20t-19 -68v-188q0 -15 12 -24t40 -18q12 -3 17.5 -7t5.5 -10q0 -12 -19 -12q-29 0 -53 3q-30 2 -46 2t-42 -2q-21 -3 -49 -3q-20 0 -20 12zM180 466q0 7 4 19q9 25 33.5 72.5t39.5 74.5q11 20 33 20q23 0 38 -5.5t15 -16.5
q0 -7 -4.5 -14t-5.5 -8q-22 -30 -56.5 -70t-58.5 -63q-19 -19 -29 -19q-9 0 -9 10z" />
    <glyph glyph-name="uni0156" unicode="&#x156;" horiz-adv-x="730" 
d="M548.5 -5q-37.5 16 -64.5 51q-41 51 -71 94t-72 114q-13 24 -37 37q-25 12 -63 17q-14 0 -14 -20v-181q0 -33 16.5 -53t54.5 -27q15 -3 22 -7.5t7 -11.5q0 -12 -26 -12q-10 0 -67 3q-25 3 -51 3q-34 0 -66 -3q-10 0 -31 -1.5t-39 -1.5q-26 0 -26 12q0 7 7 11.5t22 7.5
q39 7 55 22.5t16 49.5v434q0 36 -4 52.5t-16 24t-40 11.5q-15 1 -22.5 7t-7.5 13q0 6 7.5 9.5t18.5 3.5q32 0 64 -2l48 -1q17 0 47 2q38 4 76 4q113 0 172 -41t59 -122q0 -61 -35 -100.5t-86 -62.5q-3 -1 -3 -5l2 -8q60 -91 99.5 -142.5t95.5 -102.5q26 -24 53 -30t71 -6
q15 0 15 -14q0 -23 -29 -33.5t-66 -10.5q-54 0 -91.5 16zM374.5 375q37.5 41 37.5 101q0 71 -29 108.5t-105 37.5q-28 0 -37.5 -19t-11.5 -74q-2 -64 -2 -159q0 -22 11.5 -29t36.5 -7q62 0 99.5 41zM316 -270q0 9 15 14q25 9 39.5 28t14.5 41q0 20 -10 29t-34 15
q-19 5 -28.5 15.5t-9.5 30.5q0 18 14 30t37 12q39 0 65 -28t26 -73q0 -37 -20 -65t-47 -43.5t-46 -15.5q-16 0 -16 10z" />
    <glyph glyph-name="uni0157" unicode="&#x157;" horiz-adv-x="362" 
d="M26 9q0 7 5.5 11t17.5 7q20 4 29 13.5t9 24.5v220q0 27 -8 43.5t-29 21.5q-4 1 -7.5 5t-3.5 10q0 10 10 14q26 7 57.5 21t54.5 27q13 8 18 8q7 0 7 -8l-3 -77q0 -4 2 -4q26 33 57.5 54t61.5 21q26 0 40 -10.5t14 -27.5q0 -19 -14.5 -40t-31.5 -21q-8 0 -32 11
q-4 2 -14.5 6.5t-18.5 4.5q-29 0 -48 -20t-19 -68v-188q0 -15 12 -24t40 -18q12 -3 17.5 -7t5.5 -10q0 -12 -19 -12q-29 0 -53 3q-30 2 -46 2t-42 -2q-21 -3 -49 -3q-20 0 -20 12zM86 -270q0 9 15 14q25 9 39.5 28t14.5 41q0 20 -10 29t-34 15q-19 5 -28.5 15.5t-9.5 30.5
q0 18 14 30t37 12q39 0 65 -28t26 -73q0 -37 -20 -65t-47 -43.5t-46 -15.5q-16 0 -16 10z" />
    <glyph glyph-name="Rcaron" unicode="&#x158;" horiz-adv-x="730" 
d="M548.5 -5q-37.5 16 -64.5 51q-41 51 -71 94t-72 114q-13 24 -37 37q-25 12 -63 17q-14 0 -14 -20v-181q0 -33 16.5 -53t54.5 -27q15 -3 22 -7.5t7 -11.5q0 -12 -26 -12q-10 0 -67 3q-25 3 -51 3q-34 0 -66 -3q-10 0 -31 -1.5t-39 -1.5q-26 0 -26 12q0 7 7 11.5t22 7.5
q39 7 55 22.5t16 49.5v434q0 36 -4 52.5t-16 24t-40 11.5q-15 1 -22.5 7t-7.5 13q0 6 7.5 9.5t18.5 3.5q32 0 64 -2l48 -1q17 0 47 2q38 4 76 4q113 0 172 -41t59 -122q0 -61 -35 -100.5t-86 -62.5q-3 -1 -3 -5l2 -8q60 -91 99.5 -142.5t95.5 -102.5q26 -24 53 -30t71 -6
q15 0 15 -14q0 -23 -29 -33.5t-66 -10.5q-54 0 -91.5 16zM374.5 375q37.5 41 37.5 101q0 71 -29 108.5t-105 37.5q-28 0 -37.5 -19t-11.5 -74q-2 -64 -2 -159q0 -22 11.5 -29t36.5 -7q62 0 99.5 41zM215 811q46 -20 69 -33q8 -4 11 -4t11 4q23 13 69 33.5t56 20.5
q15 0 15 -12q0 -8 -6 -13l-101 -83q-19 -16 -26 -20.5t-18 -4.5t-18 4.5t-26 20.5l-101 83q-7 6 -7 13q0 11 16 11q10 0 56 -20z" />
    <glyph glyph-name="rcaron" unicode="&#x159;" horiz-adv-x="362" 
d="M26 9q0 7 5.5 11t17.5 7q20 4 29 13.5t9 24.5v220q0 27 -8 43.5t-29 21.5q-4 1 -7.5 5t-3.5 10q0 10 10 14q26 7 57.5 21t54.5 27q13 8 18 8q7 0 7 -8l-3 -77q0 -4 2 -4q26 33 57.5 54t61.5 21q26 0 40 -10.5t14 -27.5q0 -19 -14.5 -40t-31.5 -21q-8 0 -32 11
q-4 2 -14.5 6.5t-18.5 4.5q-29 0 -48 -20t-19 -68v-188q0 -15 12 -24t40 -18q12 -3 17.5 -7t5.5 -10q0 -12 -19 -12q-29 0 -53 3q-30 2 -46 2t-42 -2q-21 -3 -49 -3q-20 0 -20 12zM189 480q-20 32 -50 85.5t-35 68.5l-2 12q0 10 11 10q6 0 15.5 -8t18.5 -17l63 -79
q3 -4 4.5 -4t4.5 4l30 37q9 11 17.5 22t16.5 20q23 25 33 25q11 0 11 -12q0 -2 -2 -10q-8 -26 -85 -154q-14 -25 -26 -25q-11 0 -25 25z" />
    <glyph glyph-name="Sacute" unicode="&#x15a;" horiz-adv-x="475" 
d="M62 31q-13 11 -15 21q-11 32 -13 119q0 7 5.5 10.5t14.5 3.5q14 0 18 -12q20 -73 60.5 -112t90.5 -39t80.5 32t30.5 81q0 36 -12.5 60.5t-34.5 42t-66 43.5q-60 36 -90.5 58t-53.5 56.5t-23 82.5q0 53 26 95.5t75.5 66.5t116.5 24q58 0 113 -23q17 -7 23 -27
q17 -68 17 -106q0 -5 -4.5 -8t-11.5 -3q-9 0 -17 4t-10 10q-20 57 -50.5 85.5t-73.5 28.5q-49 0 -78.5 -26t-29.5 -80q0 -37 33 -66.5t106 -73.5q73 -45 109 -87.5t36 -108.5q0 -93 -61 -145.5t-164 -52.5q-86 0 -147 46zM223 691q0 7 7 17q51 75 88 121q9 13 29 13
q15 -1 39.5 -10t23.5 -18q-1 -6 -4 -10t-11 -10q-31 -24 -91 -65q-36 -24 -52 -36q-13 -9 -21 -9t-8 7z" />
    <glyph glyph-name="sacute" unicode="&#x15b;" horiz-adv-x="336" 
d="M42 21q-6 11 -9.5 38.5t-3.5 53.5q0 10 15 10q5 0 9.5 -2.5t6.5 -6.5q14 -46 41 -70.5t60 -24.5q28 0 46 18.5t18 44.5t-17.5 44.5t-59.5 43.5q-52 30 -77 59.5t-25 70.5q0 53 39 87t105 34q29 0 52.5 -6t34.5 -14q8 -11 13.5 -35.5t5.5 -50.5q0 -4 -4 -6t-9 -2
q-7 0 -13.5 3.5t-7.5 7.5q-28 71 -80 71q-25 0 -43.5 -15.5t-18.5 -40.5q0 -22 16 -39.5t53 -38.5q64 -36 90.5 -65.5t26.5 -75.5q0 -59 -42 -93.5t-112 -34.5q-67 0 -110 35zM150 466q0 7 4 19q9 25 33.5 72.5t39.5 74.5q11 20 33 20q23 0 38 -5.5t15 -16.5q0 -7 -4.5 -14
t-5.5 -8q-22 -30 -56.5 -70t-58.5 -63q-19 -19 -29 -19q-9 0 -9 10z" />
    <glyph glyph-name="Scircumflex" unicode="&#x15c;" horiz-adv-x="475" 
d="M62 31q-13 11 -15 21q-11 32 -13 119q0 7 5.5 10.5t14.5 3.5q14 0 18 -12q20 -73 60.5 -112t90.5 -39t80.5 32t30.5 81q0 36 -12.5 60.5t-34.5 42t-66 43.5q-60 36 -90.5 58t-53.5 56.5t-23 82.5q0 53 26 95.5t75.5 66.5t116.5 24q58 0 113 -23q17 -7 23 -27
q17 -68 17 -106q0 -5 -4.5 -8t-11.5 -3q-9 0 -17 4t-10 10q-20 57 -50.5 85.5t-73.5 28.5q-49 0 -78.5 -26t-29.5 -80q0 -37 33 -66.5t106 -73.5q73 -45 109 -87.5t36 -108.5q0 -93 -61 -145.5t-164 -52.5q-86 0 -147 46zM118 706q0 7 7 13l101 87q17 15 25 19.5t19 4.5
t19 -4.5t25 -19.5l101 -87q6 -5 6 -13q0 -12 -15 -12q-10 0 -56 20.5t-69 33.5q-5 4 -11 4t-11 -4q-23 -13 -69 -33t-56 -20q-16 0 -16 11z" />
    <glyph glyph-name="scircumflex" unicode="&#x15d;" horiz-adv-x="336" 
d="M42 21q-6 11 -9.5 38.5t-3.5 53.5q0 10 15 10q5 0 9.5 -2.5t6.5 -6.5q14 -46 41 -70.5t60 -24.5q28 0 46 18.5t18 44.5t-17.5 44.5t-59.5 43.5q-52 30 -77 59.5t-25 70.5q0 53 39 87t105 34q29 0 52.5 -6t34.5 -14q8 -11 13.5 -35.5t5.5 -50.5q0 -4 -4 -6t-9 -2
q-7 0 -13.5 3.5t-7.5 7.5q-28 71 -80 71q-25 0 -43.5 -15.5t-18.5 -40.5q0 -22 16 -39.5t53 -38.5q64 -36 90.5 -65.5t26.5 -75.5q0 -59 -42 -93.5t-112 -34.5q-67 0 -110 35zM210 631q77 -128 85 -154q2 -8 2 -10q0 -12 -11 -12q-10 0 -33 25q-8 9 -16.5 20t-17.5 22
l-30 37q-3 4 -4.5 4t-4.5 -4l-63 -79q-9 -9 -18.5 -17t-15.5 -8q-11 0 -11 10l2 12q5 15 35 68.5t50 85.5q14 25 25 25q12 0 26 -25z" />
    <glyph glyph-name="Scedilla" unicode="&#x15e;" horiz-adv-x="472" 
d="M62 31q-13 11 -15 21q-11 32 -13 119q0 7 5.5 10.5t14.5 3.5q14 0 18 -12q20 -73 60.5 -112t90.5 -39t80.5 32t30.5 81q0 36 -12.5 60.5t-34.5 42t-66 43.5q-60 36 -90.5 58t-53.5 56.5t-23 82.5q0 53 26 95.5t75.5 66.5t116.5 24q58 0 113 -23q17 -7 23 -27
q17 -68 17 -106q0 -5 -4.5 -8t-11.5 -3q-9 0 -17 4t-10 10q-20 57 -50.5 85.5t-73.5 28.5q-49 0 -78.5 -26t-29.5 -80q0 -37 33 -66.5t106 -73.5q73 -45 109 -87.5t36 -108.5q0 -93 -61 -145.5t-164 -52.5q-86 0 -147 46zM145 -266.5q-12 8.5 -12 27.5q0 15 5.5 24t12.5 9
q2 0 16 -6.5t46 -6.5q20 0 31.5 10.5t11.5 28.5q0 24 -12.5 36.5t-35.5 12.5q-6 0 -13.5 -2t-11.5 -2q-12 0 -19.5 6.5t-7.5 12.5q0 8 6 16l84 108h37l-37 -53q-4 -5 -4 -10q0 -7 10 -12q26 -9 45.5 -32t19.5 -54q0 -32 -22.5 -60.5t-55 -45t-58.5 -16.5q-24 0 -36 8.5z" />
    <glyph glyph-name="scedilla" unicode="&#x15f;" horiz-adv-x="336" 
d="M42 21q-6 11 -9.5 38.5t-3.5 53.5q0 10 15 10q5 0 9.5 -2.5t6.5 -6.5q14 -46 41 -70.5t60 -24.5q28 0 46 18.5t18 44.5t-17.5 44.5t-59.5 43.5q-52 30 -77 59.5t-25 70.5q0 53 39 87t105 34q29 0 52.5 -6t34.5 -14q8 -11 13.5 -35.5t5.5 -50.5q0 -4 -4 -6t-9 -2
q-7 0 -13.5 3.5t-7.5 7.5q-28 71 -80 71q-25 0 -43.5 -15.5t-18.5 -40.5q0 -22 16 -39.5t53 -38.5q64 -36 90.5 -65.5t26.5 -75.5q0 -59 -42 -93.5t-112 -34.5q-67 0 -110 35zM92 -265q-8 9 -8 34q0 21 14 21q5 0 22 -6t36 -6q17 0 26 11.5t9 31.5q0 25 -17 38.5t-41 13.5
q-8 0 -16.5 -4t-11.5 -4q-7 0 -13 5.5t-6 13.5q0 7 8 15l88 109h36l-37 -47q-5 -8 -5 -11q0 -5 11 -11q26 -11 42.5 -31.5t16.5 -46.5q0 -36 -22 -67t-53 -49.5t-53 -18.5q-18 0 -26 9z" />
    <glyph glyph-name="Scaron" unicode="&#x160;" horiz-adv-x="475" 
d="M62 31q-13 11 -15 21q-11 32 -13 119q0 7 5.5 10.5t14.5 3.5q14 0 18 -12q20 -73 60.5 -112t90.5 -39t80.5 32t30.5 81q0 36 -12.5 60.5t-34.5 42t-66 43.5q-60 36 -90.5 58t-53.5 56.5t-23 82.5q0 53 26 95.5t75.5 66.5t116.5 24q58 0 113 -23q17 -7 23 -27
q17 -68 17 -106q0 -5 -4.5 -8t-11.5 -3q-9 0 -17 4t-10 10q-20 57 -50.5 85.5t-73.5 28.5q-49 0 -78.5 -26t-29.5 -80q0 -37 33 -66.5t106 -73.5q73 -45 109 -87.5t36 -108.5q0 -93 -61 -145.5t-164 -52.5q-86 0 -147 46zM191 811q46 -20 69 -33q8 -4 11 -4t11 4
q23 13 69 33.5t56 20.5q15 0 15 -12q0 -8 -6 -13l-101 -83q-19 -16 -26 -20.5t-18 -4.5t-18 4.5t-26 20.5l-101 83q-7 6 -7 13q0 11 16 11q10 0 56 -20z" />
    <glyph glyph-name="scaron" unicode="&#x161;" horiz-adv-x="336" 
d="M42 21q-6 11 -9.5 38.5t-3.5 53.5q0 10 15 10q5 0 9.5 -2.5t6.5 -6.5q14 -46 41 -70.5t60 -24.5q28 0 46 18.5t18 44.5t-17.5 44.5t-59.5 43.5q-52 30 -77 59.5t-25 70.5q0 53 39 87t105 34q29 0 52.5 -6t34.5 -14q8 -11 13.5 -35.5t5.5 -50.5q0 -4 -4 -6t-9 -2
q-7 0 -13.5 3.5t-7.5 7.5q-28 71 -80 71q-25 0 -43.5 -15.5t-18.5 -40.5q0 -22 16 -39.5t53 -38.5q64 -36 90.5 -65.5t26.5 -75.5q0 -59 -42 -93.5t-112 -34.5q-67 0 -110 35zM159 480q-20 32 -50 85.5t-35 68.5l-2 12q0 10 11 10q6 0 15.5 -8t18.5 -17l63 -79q3 -4 4.5 -4
t4.5 4l30 37q9 11 17.5 22t16.5 20q23 25 33 25q11 0 11 -12q0 -2 -2 -10q-8 -26 -85 -154q-14 -25 -26 -25q-11 0 -25 25z" />
    <glyph glyph-name="uni0162" unicode="&#x162;" horiz-adv-x="679" 
d="M184 8q0 7 7 11.5t23 7.5q40 7 58 24t18 50v396q0 63 -4 84t-15 24q-16 4 -62 4h-39q-27 0 -52.5 -12t-37.5 -32q-28 -42 -46 -42q-10 0 -10 14q0 8 6 22q16 31 23 55.5t11 57.5q3 24 20 24q5 0 14.5 -14t12.5 -19q7 -9 28.5 -14t42.5 -5l361 1q57 0 85 14q12 8 16 12
q2 1 9.5 6.5t17.5 5.5q4 0 6 -6.5t2 -14.5q0 -7 -3 -25l-7 -30q-3 -11 -5 -21.5t-2 -23.5v-14q0 -13 -4.5 -23.5t-11.5 -10.5q-8 0 -12.5 9.5t-10.5 31.5q-6 27 -27.5 40.5t-66.5 13.5h-84q-22 0 -32 -6.5t-13.5 -29.5t-3.5 -76v-396q0 -32 18.5 -48.5t58.5 -25.5
q15 -3 22 -7.5t7 -11.5q0 -12 -26 -12q-37 0 -69 3q-40 2 -60 2q-23 0 -65 -2q-33 -3 -71 -3q-27 0 -27 12zM245 -266.5q-12 8.5 -12 27.5q0 15 5.5 24t12.5 9q2 0 16 -6.5t46 -6.5q20 0 31.5 10.5t11.5 28.5q0 24 -12.5 36.5t-35.5 12.5q-6 0 -13.5 -2t-11.5 -2
q-12 0 -19.5 6.5t-7.5 12.5q0 8 6 16l84 108h37l-37 -53q-4 -5 -4 -10q0 -7 10 -12q26 -9 45.5 -32t19.5 -54q0 -32 -22.5 -60.5t-55 -45t-58.5 -16.5q-24 0 -36 8.5z" />
    <glyph glyph-name="uni0163" unicode="&#x163;" horiz-adv-x="335" 
d="M115.5 17q-29.5 31 -29.5 91v232q0 8 -7 11.5t-25 3.5h-8q-6 0 -10 8t-4 17q0 3 2.5 6t4.5 4q28 16 58 41t51 47l7 7t13 6q15 0 14 -15l-6 -49v-4q0 -9 6 -12.5t18 -3.5h116q3 0 6 -7t3 -14q0 -11 -3 -21t-7 -10h-97q-25 0 -32.5 -5t-7.5 -23v-194q0 -42 17 -64.5
t48 -22.5q26 0 41.5 4t29.5 13l5 2q8 0 8 -16q0 -7 -19.5 -22.5t-48.5 -28t-59 -12.5q-55 0 -84.5 31zM108 -265q-8 9 -8 34q0 21 14 21q5 0 22 -6t36 -6q17 0 26 11.5t9 31.5q0 25 -17 38.5t-41 13.5q-8 0 -16.5 -4t-11.5 -4q-7 0 -13 5.5t-6 13.5q0 7 8 15l88 109h36
l-37 -47q-5 -8 -5 -11q0 -5 11 -11q26 -11 42.5 -31.5t16.5 -46.5q0 -36 -22 -67t-53 -49.5t-53 -18.5q-18 0 -26 9z" />
    <glyph glyph-name="Tcaron" unicode="&#x164;" horiz-adv-x="679" 
d="M184 8q0 7 7 11.5t23 7.5q40 7 58 24t18 50v396q0 63 -4 84t-15 24q-16 4 -62 4h-39q-27 0 -52.5 -12t-37.5 -32q-28 -42 -46 -42q-10 0 -10 14q0 8 6 22q16 31 23 55.5t11 57.5q3 24 20 24q5 0 14.5 -14t12.5 -19q7 -9 28.5 -14t42.5 -5l361 1q57 0 85 14q12 8 16 12
q2 1 9.5 6.5t17.5 5.5q4 0 6 -6.5t2 -14.5q0 -7 -3 -25l-7 -30q-3 -11 -5 -21.5t-2 -23.5v-14q0 -13 -4.5 -23.5t-11.5 -10.5q-8 0 -12.5 9.5t-10.5 31.5q-6 27 -27.5 40.5t-66.5 13.5h-84q-22 0 -32 -6.5t-13.5 -29.5t-3.5 -76v-396q0 -32 18.5 -48.5t58.5 -25.5
q15 -3 22 -7.5t7 -11.5q0 -12 -26 -12q-37 0 -69 3q-40 2 -60 2q-23 0 -65 -2q-33 -3 -71 -3q-27 0 -27 12zM267 811q46 -20 69 -33q8 -4 11 -4t11 4q23 13 69 33.5t56 20.5q15 0 15 -12q0 -8 -6 -13l-101 -83q-19 -16 -26 -20.5t-18 -4.5t-18 4.5t-26 20.5l-101 83
q-7 6 -7 13q0 11 16 11q10 0 56 -20z" />
    <glyph glyph-name="tcaron" unicode="&#x165;" horiz-adv-x="335" 
d="M115.5 17q-29.5 31 -29.5 91v232q0 8 -7 11.5t-25 3.5h-8q-6 0 -10 8t-4 17q0 3 2.5 6t4.5 4q28 16 58 41t51 47l7 7t13 6q15 0 14 -15l-6 -49v-4q0 -9 6 -12.5t18 -3.5h116q3 0 6 -7t3 -14q0 -11 -3 -21t-7 -10h-97q-25 0 -32.5 -5t-7.5 -23v-194q0 -42 17 -64.5
t48 -22.5q26 0 41.5 4t29.5 13l5 2q8 0 8 -16q0 -7 -19.5 -22.5t-48.5 -28t-59 -12.5q-55 0 -84.5 31zM246.5 473q-2.5 7 -2.5 17q0 6 2 26.5t2 30.5q0 26 -4 54q-2 18 -2 24q0 16 20.5 33.5t39.5 17.5q10 0 13 -8t3 -24q0 -30 -12 -75.5t-28 -75.5q-14 -27 -25 -27
q-4 0 -6.5 7z" />
    <glyph glyph-name="Tbar" unicode="&#x166;" horiz-adv-x="679" 
d="M677 676.5q2 -6.5 2 -14.5q0 -7 -3 -25l-7 -30q-3 -11 -5 -21.5t-2 -23.5v-14q0 -13 -4.5 -23.5t-11.5 -10.5q-8 0 -12.5 9.5t-10.5 31.5q-6 27 -27.5 40.5t-66.5 13.5h-84q-22 0 -32 -6.5t-13.5 -29.5t-3.5 -76v-123h120q7 0 12 -4.5t4 -10.5q-4 -12 -13.5 -20t-21.5 -8
h-101v-230q0 -32 18.5 -48.5t58.5 -25.5q15 -3 22 -7.5t7 -11.5q0 -12 -26 -12q-37 0 -69 3q-40 2 -60 2q-23 0 -65 -2q-33 -3 -71 -3q-27 0 -27 12q0 7 7 11.5t23 7.5q40 7 58 24t18 50v230h-115q-8 0 -12.5 6.5t-4.5 14.5q0 9 7.5 15.5t17.5 6.5h107v123q0 63 -4 84
t-15 24q-16 4 -62 4h-39q-27 0 -52.5 -12t-37.5 -32q-28 -42 -46 -42q-10 0 -10 14q0 8 6 22q16 31 23 55.5t11 57.5q3 24 20 24q5 0 14.5 -14t12.5 -19q7 -9 28.5 -14t42.5 -5l361 1q57 0 85 14q12 8 16 12q2 1 9.5 6.5t17.5 5.5q4 0 6 -6.5z" />
    <glyph glyph-name="tbar" unicode="&#x167;" horiz-adv-x="365" 
d="M336 49q0 -7 -19.5 -22.5t-48.5 -28t-59 -12.5q-55 0 -84.5 31t-29.5 91v100h-41q-8 0 -12.5 7t-4.5 14q0 9 7.5 15t18.5 6h32v90q0 8 -7 11.5t-25 3.5h-8q-6 0 -10 8t-4 17q0 3 2.5 6t4.5 4q28 16 58 41t51 47l7 7t13 6q15 0 14 -15l-6 -49v-4q0 -9 6 -12.5t18 -3.5h116
q3 0 6 -7t3 -14q0 -11 -3 -21t-7 -10h-97q-25 0 -32.5 -5t-7.5 -23v-77h103q6 0 11.5 -4t5.5 -9l-1 -3q-11 -26 -34 -26h-85v-75q0 -42 17 -64.5t48 -22.5q26 0 41.5 4t29.5 13l5 2q8 0 8 -16z" />
    <glyph glyph-name="Utilde" unicode="&#x168;" horiz-adv-x="740" 
d="M168.5 55.5q-70.5 69.5 -70.5 189.5v299q0 31 -13 50t-34 25q-32 9 -32 22t28 13q18 0 52 -2q38 -2 56 -2t56 2l44 1q28 0 28 -13q0 -6 -6.5 -10t-17 -7.5t-14.5 -5.5q-15 -5 -27.5 -25t-12.5 -49v-274q0 -109 53 -164.5t140 -55.5q96 0 144 64t48 182q0 135 -2 206
q-2 50 -12.5 79t-33.5 38q-2 1 -12.5 4.5t-16.5 8t-6 9.5q0 12 29 12l46 -1q12 -1 37 -1q18 0 46 2q26 2 38 2q28 0 28 -13t-31 -20q-28 -6 -40 -26t-14 -54q-6 -116 -8 -242l-1 -45q-1 -78 -36.5 -139t-95.5 -95t-133 -34q-133 0 -203.5 69.5zM264 697.5q-6 5.5 -6 10.5
q0 6 16 29t34.5 42t29.5 19q28 0 74 -4l21 -1q32 -2 50 -2q20 0 37 19q6 6 12 13t8 7q7 0 14 -5.5t7 -11.5q0 -4 -7 -12t-9 -10q-13 -15 -44 -57q-5 -7 -14.5 -10.5t-15.5 -3.5t-56 4q-82 5 -88 5q-7 0 -16.5 -4.5t-15.5 -10.5q-7 -7 -12.5 -14.5t-7.5 -7.5q-5 0 -11 5.5z
" />
    <glyph glyph-name="utilde" unicode="&#x169;" horiz-adv-x="535" 
d="M351 -11l2 29q3 18 3 33v8q-70 -73 -163 -73q-49 0 -80.5 34t-31.5 92v198q0 22 -10 35.5t-32 20.5q-14 4 -14 17q0 15 15 17q34 2 57 6t58 13q10 2 13 2q12 0 11 -14q-7 -43 -7 -77v-194q0 -36 23 -61.5t53 -26.5q26 0 43 4t33 17q36 28 36 71v175q0 26 -19.5 38.5
t-42.5 13.5q-22 0 -22 18q0 17 22 17q55 2 82.5 5.5t56.5 11.5q6 2 11 2q6 0 10 -3t4 -8q0 -3 -1 -5.5t-2 -5.5q-2 -12 -4.5 -35t-2.5 -35v-231q0 -46 18 -46l40 2q16 0 16 -15q0 -14 -15 -16q-38 -5 -67.5 -14t-62.5 -22q-14 -7 -22 -7t-8 9zM120.5 465.5
q-5.5 4.5 -5.5 11.5q0 6 19.5 31.5t41.5 47t33 21.5q9 0 29 -2l28 -3q50 -4 60 -4q21 0 38 19l16 18t10 9q7 0 14 -5.5t7 -12.5q0 -3 -9 -13t-13 -15q-5 -6 -30 -38l-16 -21q-5 -7 -14.5 -10.5t-15.5 -3.5q-15 0 -45 3q-67 5 -78 5q-16 0 -33 -19q-3 -3 -12 -13t-12 -10
q-7 0 -12.5 4.5z" />
    <glyph glyph-name="Umacron" unicode="&#x16a;" horiz-adv-x="740" 
d="M168.5 55.5q-70.5 69.5 -70.5 189.5v299q0 31 -13 50t-34 25q-32 9 -32 22t28 13q18 0 52 -2q38 -2 56 -2t56 2l44 1q28 0 28 -13q0 -6 -6.5 -10t-17 -7.5t-14.5 -5.5q-15 -5 -27.5 -25t-12.5 -49v-274q0 -109 53 -164.5t140 -55.5q96 0 144 64t48 182q0 135 -2 206
q-2 50 -12.5 79t-33.5 38q-2 1 -12.5 4.5t-16.5 8t-6 9.5q0 12 29 12l46 -1q12 -1 37 -1q18 0 46 2q26 2 38 2q28 0 28 -13t-31 -20q-28 -6 -40 -26t-14 -54q-6 -116 -8 -242l-1 -45q-1 -78 -36.5 -139t-95.5 -95t-133 -34q-133 0 -203.5 69.5zM249.5 725.5
q-4.5 4.5 -4.5 9.5q0 16 7.5 32.5t20.5 16.5h265q6 0 10.5 -4.5t4.5 -9.5q0 -18 -10.5 -33.5t-23.5 -15.5h-258q-7 0 -11.5 4.5z" />
    <glyph glyph-name="umacron" unicode="&#x16b;" horiz-adv-x="535" 
d="M351 -11l2 29q3 18 3 33v8q-70 -73 -163 -73q-49 0 -80.5 34t-31.5 92v198q0 22 -10 35.5t-32 20.5q-14 4 -14 17q0 15 15 17q34 2 57 6t58 13q10 2 13 2q12 0 11 -14q-7 -43 -7 -77v-194q0 -36 23 -61.5t53 -26.5q26 0 43 4t33 17q36 28 36 71v175q0 26 -19.5 38.5
t-42.5 13.5q-22 0 -22 18q0 17 22 17q55 2 82.5 5.5t56.5 11.5q6 2 11 2q6 0 10 -3t4 -8q0 -3 -1 -5.5t-2 -5.5q-2 -12 -4.5 -35t-2.5 -35v-231q0 -46 18 -46l40 2q16 0 16 -15q0 -14 -15 -16q-38 -5 -67.5 -14t-62.5 -22q-14 -7 -22 -7t-8 9zM135.5 507.5
q-4.5 4.5 -4.5 9.5q0 16 8 33t21 17h222q6 0 10.5 -4.5t4.5 -9.5q0 -20 -9.5 -35t-24.5 -15h-216q-7 0 -11.5 4.5z" />
    <glyph glyph-name="Ubreve" unicode="&#x16c;" horiz-adv-x="740" 
d="M168.5 55.5q-70.5 69.5 -70.5 189.5v299q0 31 -13 50t-34 25q-32 9 -32 22t28 13q18 0 52 -2q38 -2 56 -2t56 2l44 1q28 0 28 -13q0 -6 -6.5 -10t-17 -7.5t-14.5 -5.5q-15 -5 -27.5 -25t-12.5 -49v-274q0 -109 53 -164.5t140 -55.5q96 0 144 64t48 182q0 135 -2 206
q-2 50 -12.5 79t-33.5 38q-2 1 -12.5 4.5t-16.5 8t-6 9.5q0 12 29 12l46 -1q12 -1 37 -1q18 0 46 2q26 2 38 2q28 0 28 -13t-31 -20q-28 -6 -40 -26t-14 -54q-6 -116 -8 -242l-1 -45q-1 -78 -36.5 -139t-95.5 -95t-133 -34q-133 0 -203.5 69.5zM322 708q-32 18 -49 44.5
t-17 48.5q0 11 3 18t8 7q6 0 11.5 -4.5t9 -9t5.5 -7.5q21 -25 45.5 -36t57.5 -11t57.5 11t45.5 36q2 3 7 9t9.5 9t9.5 3q7 0 9 -6t2 -19q0 -22 -17 -48.5t-49 -44.5t-74 -18t-74 18z" />
    <glyph glyph-name="ubreve" unicode="&#x16d;" horiz-adv-x="535" 
d="M351 -11l2 29q3 18 3 33v8q-70 -73 -163 -73q-49 0 -80.5 34t-31.5 92v198q0 22 -10 35.5t-32 20.5q-14 4 -14 17q0 15 15 17q34 2 57 6t58 13q10 2 13 2q12 0 11 -14q-7 -43 -7 -77v-194q0 -36 23 -61.5t53 -26.5q26 0 43 4t33 17q36 28 36 71v175q0 26 -19.5 38.5
t-42.5 13.5q-22 0 -22 18q0 17 22 17q55 2 82.5 5.5t56.5 11.5q6 2 11 2q6 0 10 -3t4 -8q0 -3 -1 -5.5t-2 -5.5q-2 -12 -4.5 -35t-2.5 -35v-231q0 -46 18 -46l40 2q16 0 16 -15q0 -14 -15 -16q-38 -5 -67.5 -14t-62.5 -22q-14 -7 -22 -7t-8 9zM200.5 492q-25.5 17 -38 43
t-12.5 51q0 12 5 19.5t13 7.5q13 0 17 -21q5 -23 24.5 -36.5t54.5 -13.5t54.5 13.5t24.5 36.5q4 21 17 21q8 0 13 -7.5t5 -19.5q0 -25 -12.5 -51t-38 -43t-63.5 -17t-63.5 17z" />
    <glyph glyph-name="Uring" unicode="&#x16e;" horiz-adv-x="740" 
d="M168.5 55.5q-70.5 69.5 -70.5 189.5v299q0 31 -13 50t-34 25q-32 9 -32 22t28 13q18 0 52 -2q38 -2 56 -2t56 2l44 1q28 0 28 -13q0 -6 -6.5 -10t-17 -7.5t-14.5 -5.5q-15 -5 -27.5 -25t-12.5 -49v-274q0 -109 53 -164.5t140 -55.5q96 0 144 64t48 182q0 135 -2 206
q-2 50 -12.5 79t-33.5 38q-2 1 -12.5 4.5t-16.5 8t-6 9.5q0 12 29 12l46 -1q12 -1 37 -1q18 0 46 2q26 2 38 2q28 0 28 -13t-31 -20q-28 -6 -40 -26t-14 -54q-6 -116 -8 -242l-1 -45q-1 -78 -36.5 -139t-95.5 -95t-133 -34q-133 0 -203.5 69.5zM460.5 828.5
q26.5 -19.5 26.5 -51.5q0 -36 -29.5 -58.5t-69.5 -22.5q-38 0 -64.5 20t-26.5 53q0 35 30 57t70 22q37 0 63.5 -19.5zM360.5 736q14.5 -15 36.5 -15q19 0 30 15t11 36t-14 35.5t-35 14.5q-19 0 -31 -15t-12 -35q0 -21 14.5 -36z" />
    <glyph glyph-name="uring" unicode="&#x16f;" horiz-adv-x="535" 
d="M351 -11l2 29q3 18 3 33v8q-70 -73 -163 -73q-49 0 -80.5 34t-31.5 92v198q0 22 -10 35.5t-32 20.5q-14 4 -14 17q0 15 15 17q34 2 57 6t58 13q10 2 13 2q12 0 11 -14q-7 -43 -7 -77v-194q0 -36 23 -61.5t53 -26.5q26 0 43 4t33 17q36 28 36 71v175q0 26 -19.5 38.5
t-42.5 13.5q-22 0 -22 18q0 17 22 17q55 2 82.5 5.5t56.5 11.5q6 2 11 2q6 0 10 -3t4 -8q0 -3 -1 -5.5t-2 -5.5q-2 -12 -4.5 -35t-2.5 -35v-231q0 -46 18 -46l40 2q16 0 16 -15q0 -14 -15 -16q-38 -5 -67.5 -14t-62.5 -22q-14 -7 -22 -7t-8 9zM196 505.5q-26 25.5 -26 61.5
t29.5 63t66.5 27q36 0 62 -24t26 -59q0 -41 -29 -67.5t-67 -26.5q-36 0 -62 25.5zM296.5 525q9.5 16 9.5 42q0 22 -14.5 40t-34.5 18t-29.5 -15t-9.5 -39q0 -25 13.5 -43.5t34.5 -18.5t30.5 16z" />
    <glyph glyph-name="Uhungarumlaut" unicode="&#x170;" horiz-adv-x="740" 
d="M168.5 55.5q-70.5 69.5 -70.5 189.5v299q0 31 -13 50t-34 25q-32 9 -32 22t28 13q18 0 52 -2q38 -2 56 -2t56 2l44 1q28 0 28 -13q0 -6 -6.5 -10t-17 -7.5t-14.5 -5.5q-15 -5 -27.5 -25t-12.5 -49v-274q0 -109 53 -164.5t140 -55.5q96 0 144 64t48 182q0 135 -2 206
q-2 50 -12.5 79t-33.5 38q-2 1 -12.5 4.5t-16.5 8t-6 9.5q0 12 29 12l46 -1q12 -1 37 -1q18 0 46 2q26 2 38 2q28 0 28 -13t-31 -20q-28 -6 -40 -26t-14 -54q-6 -116 -8 -242l-1 -45q-1 -78 -36.5 -139t-95.5 -95t-133 -34q-133 0 -203.5 69.5zM417 691q0 7 7 17
q51 75 88 121q9 13 29 13q15 -1 39.5 -10t23.5 -18q-1 -6 -4 -10t-11 -10q-31 -24 -91 -65q-36 -24 -52 -36q-13 -9 -21 -9t-8 7zM274 691q0 7 7 17q51 75 88 121q9 13 29 13q15 -1 39.5 -10t23.5 -18q-1 -6 -4 -10t-11 -10q-31 -24 -91 -65q-36 -24 -52 -36q-13 -9 -21 -9
t-8 7z" />
    </font>
</defs>
</svg>
